1 сезон

1 сезон

iTunes

1

КиноПоиск HD

Кинопоиск HD

iTunes

13

1 сезон

RePack

30

Ultimate

ВАЖНО

ИГРА 18+

pack

RePack

MK11
pack

Легкие деньги

RePack

jed

RePack

fifa19

RePack

RDR2

RePack

NEED FOR SPEED™ PAYBACK

4 сезон

9 сезон

Бесстыжие 9 сезон

Все сериалы

все сериалы на PB.wtf

RePack

FAR CRY 5
  
Magnet ссылка

Душа / Soul (Пит Доктер, Кемп Пауэрс) [2020, мультфильм, фэнтези, комедия, приключения, семейный, музыка, BDRip-AVC] DUB [iTunes] - ExKinoRay piratbit.org

Душа через торрент piratbit.org

Раздают: 7 [ 0 KB/s ]
Размер: 2.58 GB | Добавлен: 21 д. назад | Торрент скачан:163 раза
Скачать  

01-04-2021 15:54 Душа Скачать торрент  

Душа / Soul
Год выпуска: 2020
Страна: США / Walt Disney Pictures, Pixar Animation Studios
Жанр: Мультфильм, фэнтези, комедия, приключения, семейный, музыка
Продолжительность: 01:40:32
Перевод: Дублированный | iTunes
Субтитры: Русские (Forced, Full), украинские (Forced, Full), английские (Full)

Режиссер: Пит Доктер, Кемп Пауэрс

rating

В ролях: Джейми Фокс, Тина Фей, Филисия Рашад, Давид Диггс, Анджела Бассетт, Грэм Нортон, Рэйчел Хаус, Алиси Брага, Ричард Айоади, Доннел Роулингс

Описание: Школьный учитель музыки Джо Гарднер случайно попадает в мир, где зарождаются человеческие увлечения, мечты и интересы, и там он знакомится с молодой душой по имени 22.

Качество: BDRip-AVC
Формат: MKV
Видео кодек: H.264
Аудио кодек: AC3
Видео: MPEG-4 AVC, 2525 Кбит/с, 1024x432
Аудио#1: Русский (AC3, 6 ch, 384 Кбит/с) Dub (iTunes)
Аудио#2: Украинский (AC3, 6 ch, 384 Кбит/с) Dub (iTunes)
Аудио#3: Английский (AC3, 6 ch, 384 Кбит/с) Original

Релиз от:
Общее
Уникальный идентификатор : 225177632573990923584523660454910044141 (0xA967A27115E268F7A1485D3832D527ED)
Полное имя : D:\Раздача\Dusha.2020.BDRip-AVC.ExKinoRay.mkv
Формат : Matroska
Версия формата : Version 4 / Version 2
Размер файла : 2,58 Гбайт
Продолжительность : 1 ч. 40 м.
Общий поток : 3680 Кбит/сек
Название фильма : Soul.2020.BDRip-AVC.ExKinoRay & grab777
Дата кодирования : UTC 2021-03-31 20:00:12
Программа кодирования : mkvmerge v7.3.0 ('Nouages') 64bit built on Oct 22 2014 18:53:34
Библиотека кодирования : libebml v1.3.0 + libmatroska v1.4.1

Видео
Идентификатор : 1
Формат : AVC
Формат/Информация : Advanced Video Codec
Профиль формата : High@L4.1
Настройки формата : CABAC / 12 Ref Frames
Параметр CABAC формата : Да
Параметр RefFrames формата : 12 кадров
Идентификатор кодека : V_MPEG4/ISO/AVC
Продолжительность : 1 ч. 40 м.
Битрейт : 2525 Кбит/сек
Ширина : 1024 пикселя
Высота : 432 пикселя
Соотношение сторон : 2,40:1
Соотношение сторон в оригинале : 2,40:1
Режим частоты кадров : Постоянный
Частота кадров : 23,976 (24000/1001) кадра/сек
Цветовое пространство : YUV
Субдискретизация насыщенности : 4:2:0
Битовая глубина : 8 бит
Тип развёртки : Прогрессивная
Бит/(Пиксели*Кадры) : 0.238
Размер потока : 1,77 Гбайт (69%)
Заголовок : Rip by grab777
Библиотека кодирования : x264 core 148 r2665M a01e339
Настройки программы : cabac=1 / ref=12 / deblock=1:-3:-3 / analyse=0x3:0x113 / me=umh / subme=11 / psy=1 / psy_rd=1.00:0.15 / mixed_ref=1 / me_range=32 / chroma_me=1 / trellis=2 / 8x8dct=1 / cqm=0 / deadzone=21,11 / fast_pskip=1 / chroma_qp_offset=-3 / threads=5 / lookahead_threads=1 / sliced_threads=0 / nr=0 / decimate=1 / interlaced=0 / bluray_compat=0 / constrained_intra=0 / bframes=12 / b_pyramid=2 / b_adapt=2 / b_bias=0 / direct=3 / weightb=1 / open_gop=0 / weightp=2 / keyint=230 / keyint_min=23 / scenecut=40 / intra_refresh=0 / rc_lookahead=40 / rc=crf / mbtree=0 / crf=16.0 / qcomp=0.60 / qpmin=0 / qpmax=69 / qpstep=4 / vbv_maxrate=50000 / vbv_bufsize=62500 / crf_max=0.0 / nal_hrd=none / filler=0 / ip_ratio=1.40 / pb_ratio=1.30 / aq=3:0.80
Язык : English
Default : Да
Forced : Нет

Аудио #1
Идентификатор : 2
Формат : AC-3
Формат/Информация : Audio Coding 3
Параметр Endianness формата : Big
Идентификатор кодека : A_AC3
Продолжительность : 1 ч. 40 м.
Вид битрейта : Постоянный
Битрейт : 384 Кбит/сек
Каналы : 6 каналов
Расположение каналов : Front: L C R, Side: L R, LFE
Частота : 48,0 КГц
Частота кадров : 31,250 кадров/сек (1536 SPF)
Битовая глубина : 16 бит
Метод сжатия : С потерями
Размер потока : 276 Мбайт (10%)
Заголовок : Dub (iTunes)
Язык : Russian
ServiceKind/String : Complete Main
Default : Да
Forced : Нет

Аудио #2
Идентификатор : 3
Формат : AC-3
Формат/Информация : Audio Coding 3
Параметр Endianness формата : Big
Идентификатор кодека : A_AC3
Продолжительность : 1 ч. 40 м.
Вид битрейта : Постоянный
Битрейт : 384 Кбит/сек
Каналы : 6 каналов
Расположение каналов : Front: L C R, Side: L R, LFE
Частота : 48,0 КГц
Частота кадров : 31,250 кадров/сек (1536 SPF)
Битовая глубина : 16 бит
Метод сжатия : С потерями
Размер потока : 276 Мбайт (10%)
Заголовок : Dub
Язык : Ukrainian
ServiceKind/String : Complete Main
Default : Нет
Forced : Нет

Аудио #3
Идентификатор : 4
Формат : AC-3
Формат/Информация : Audio Coding 3
Параметр Endianness формата : Big
Идентификатор кодека : A_AC3
Продолжительность : 1 ч. 40 м.
Вид битрейта : Постоянный
Битрейт : 384 Кбит/сек
Каналы : 6 каналов
Расположение каналов : Front: L C R, Side: L R, LFE
Частота : 48,0 КГц
Частота кадров : 31,250 кадров/сек (1536 SPF)
Битовая глубина : 16 бит
Метод сжатия : С потерями
Размер потока : 276 Мбайт (10%)
Заголовок : Original
Язык : English
ServiceKind/String : Complete Main
Default : Нет
Forced : Нет

Текст #1
Идентификатор : 5
Формат : UTF-8
Идентификатор кодека : S_TEXT/UTF8
Идентификатор кодека/Информация : UTF-8 Plain Text
Продолжительность : 1 ч. 9 м.
Битрейт : 1 бит/сек
ElementCount : 22
Размер потока : 1016 байт (0%)
Заголовок : Forced (HDRezka Studio)
Язык : Russian
Default : Да
Forced : Нет

Текст #2
Идентификатор : 6
Формат : UTF-8
Идентификатор кодека : S_TEXT/UTF8
Идентификатор кодека/Информация : UTF-8 Plain Text
Продолжительность : 1 ч. 39 м.
Битрейт : 110 бит/сек
ElementCount : 1544
Размер потока : 81,1 Кбайт (0%)
Заголовок : Full (FOCS)
Язык : Russian
Default : Нет
Forced : Нет

Текст #3
Идентификатор : 7
Формат : UTF-8
Идентификатор кодека : S_TEXT/UTF8
Идентификатор кодека/Информация : UTF-8 Plain Text
Продолжительность : 1 ч. 35 м.
Битрейт : 1 бит/сек
ElementCount : 24
Размер потока : 1,03 Кбайт (0%)
Заголовок : Forced
Язык : Ukrainian
Default : Нет
Forced : Нет

Текст #4
Идентификатор : 8
Формат : UTF-8
Идентификатор кодека : S_TEXT/UTF8
Идентификатор кодека/Информация : UTF-8 Plain Text
Продолжительность : 1 ч. 39 м.
Битрейт : 100 бит/сек
ElementCount : 1341
Размер потока : 73,2 Кбайт (0%)
Заголовок : Full
Язык : Ukrainian
Default : Нет
Forced : Нет

Текст #5
Идентификатор : 9
Формат : UTF-8
Идентификатор кодека : S_TEXT/UTF8
Идентификатор кодека/Информация : UTF-8 Plain Text
Продолжительность : 1 ч. 39 м.
Битрейт : 68 бит/сек
ElementCount : 1576
Размер потока : 49,8 Кбайт (0%)
Заголовок : Full
Язык : English
Default : Нет
Forced : Нет

Меню
00:00:00.000 : :Chapter 01
00:03:32.337 : :Chapter 02
00:04:57.922 : :Chapter 03
00:08:43.189 : :Chapter 04
00:09:18.891 : :Chapter 05
00:11:49.333 : :Chapter 06
00:12:29.457 : :Chapter 07
00:15:03.569 : :Chapter 08
00:17:12.031 : :Chapter 09
00:18:24.686 : :Chapter 10
00:19:53.984 : :Chapter 11
00:21:29.663 : :Chapter 12
00:26:00.058 : :Chapter 13
00:29:47.786 : :Chapter 14
00:36:07.915 : :Chapter 15
00:38:22.383 : :Chapter 16
00:39:53.307 : :Chapter 17
00:41:55.804 : :Chapter 18
00:43:43.621 : :Chapter 19
00:44:29.166 : :Chapter 20
00:46:06.263 : :Chapter 21
00:49:38.183 : :Chapter 22
00:50:40.537 : :Chapter 23
00:51:28.126 : :Chapter 24
00:55:31.328 : :Chapter 25
00:56:59.791 : :Chapter 26
00:58:34.093 : :Chapter 27
01:00:31.794 : :Chapter 28
01:04:48.551 : :Chapter 29
01:07:53.360 : :Chapter 30
01:09:15.484 : :Chapter 31
01:12:33.974 : :Chapter 32
01:15:32.361 : :Chapter 33
01:17:23.555 : :Chapter 34
01:21:15.579 : :Chapter 35
01:22:57.806 : :Chapter 36
01:26:43.323 : :Chapter 37
01:28:32.598 : :Chapter 38
01:30:13.574 : :Chapter 39

piratbit.org



Скачать Душа через торрент https://c.radikal.ru/c33/2012/82/bfbc106624ee.jpg Скачать фильм Душа через торрент бесплантно в хорошем качестве Описание: Школьный учитель музыки Джо Гарднер случайно попадает в мир, где зарождаются человеческие увлечения, мечты и интересы, и там он ... 9.9 10 7
Info! Золотая раздача, скачанное не засчитывается.
Торрент: Зарегистрирован [2021-04-01 15:54] · скачан: 163 раз
Статус: √ проверено
Размер: 2.58 GB
Как cкачать? Как скачать Душа через торрент | UTorrent

% Раздел Тема Автор DL S | L
T Фильмы 2019-2020 [DVDrip, WEB-DLRip, HDrip] (DUB, MVO) [ 1.44 GB ] Охотники за душами / Soul Hunters [2019 WEB-DLRip-AVC] MVO [HDRezka Studio] - ExKinoRay Enigma2010 Скачать
2 | 0

28-11-2019 20:33  

Отключить всю рекламу на сайте

    Дорогой пользователь! Огромная просьба, поблагодарите релизера, оцените раздачу и оставьте свои комментарий, если Вы скачали Душа через торрент бесплатно! Внесите свою лепту в развитие PiratBit!
    Комментировать посты могут только пользователи прошедшие не сложную регистрацию
    Показать сообщения:    

    Душа через торрент
    Скачать бесплатно Душа
    Душа скачать торрент
    Душа смотреть онлайн
    Cкачать фильм Душа бесплатно
    Душа скачать торрент в хорошем качестве
    Душа смотреть онлайн бесплатно в хорошем качестве


    Вы не можете начинать темы
    Вы не можете отвечать на сообщения
    Вы не можете редактировать свои сообщения
    Вы не можете удалять свои сообщения
    Вы не можете голосовать в опросах
    Вы не можете прикреплять файлы к сообщениям
    Вы можете скачивать файлы