1 сезон

1 сезон

iTunes

1

КиноПоиск HD

Кинопоиск HD

iTunes

13

1 сезон

RePack

30

Ultimate

ВАЖНО

ИГРА 18+

pack

RePack

MK11
pack

Легкие деньги

RePack

jed

RePack

fifa19

RePack

RDR2

RePack

NEED FOR SPEED™ PAYBACK

4 сезон

9 сезон

Бесстыжие 9 сезон

Все сериалы

все сериалы на PB.wtf

RePack

FAR CRY 5
  
Magnet ссылка

Красная река / River Runs Red (Уэс Миллер) [2018, триллер, HDRip-AVC] MVO [HDRezka Studio] от MediaBit piratbit.org

Красная река через торрент piratbit.org

Раздают: 1 [ 0 KB/s ]
Размер: 2.05 GB | Добавлен: 20 д. назад | Торрент скачан:57 раз
Скачать  

02-04-2021 20:52 Красная река Скачать торрент  


Красная река / River Runs Red
Информация о фильме:
Название: Красная река
Оригинальное название: River Runs Red
Год выхода: 2018
Жанр: Триллер
Режиссер: Уэс Миллер

В ролях: Тэй Диггз, Джон Кьюсак, Джордж Лопес, Люк Хемсворт, Джанни Капальди, Бриана Эвиган, Эр Джей Митт, Стивен Берреби, Жаклин Флеминг, Дженнифер Тао, Майкл Клофайн, Джон Д. Хикман, Кертис Никулс, Жу Жу Папелье

Описание: Молодой парень СиДжей убит двумя полицейскими, которые во время задержания подумали, что он собирается воспользоваться оружием. Но парень был безоружным, поэтому офицеры вынуждены были подбросить ему пистолет, чтобы защитить себя. Скорбящие родители СиДжея уверены, что их сын был законопослушным гражданином и не мог угрожать оружием стражам порядка. В скором времени отец убитого Чарльз начинает копаться в прошлом оправданных полицейских и узнает, что раньше эти копы несколько раз убивали молодых парней при похожих обстоятельствах.



Страна: США
Студия: Almost Never Films Inc., Future Proof Films, Media Finance Capital, Optimad Entertainment Media, Premiere Picture, Starring Entertainment, Sweet Unknown Studios
Продолжительность: 01:34:31
Перевод: Профессиональный (многоголосый, закадровый) - HDRezka Studio



Информация о файле:
Кодек: AVC
Формат: MKV
Качество: HDRip-AVC
Видео: MPEG-4 AVC, 1024x428, 23.976 fps, 2207 kbps
Аудио RU: AC3, 6 ch, 48 kHz, 448 kbps
Аудио EN: AC3, 6 ch, 48 kHz, 448 kbps
Субтитры: Aнглийские
Навигация по главам: Да

x264 info: frame I:1056 Avg QP: 9.81 size: 84570
x264 info: frame P:29193 Avg QP:12.83 size: 27042
x264 info: frame B:105734 Avg QP:15.81 size: 6463
General
Unique ID : 175683859114089710447017176851829348488 (0x842B7B0222A88A66A59C47193801D888)
Complete name : D:uTorrentРипы_от_wolf1245_MediaBitRiver Runs Red.2018.MVO.HDRezka.HDRip-AVC.[wolf1245.MediaBit].mkv
Format : Matroska
Format version : Version 4
File size : 2.05 GiB
Duration : 1 h 34 min
Overall bit rate : 3 102 kb/s
Movie name : River Runs Red.2018.MVO.HDRezka.HDRip-AVC.[wolf1245.MediaBit]
Encoded date : UTC 2021-04-02 20:37:51
Writing application : mkvmerge v55.0.0 ('Waiting For Space') 64-bit
Writing library : libebml v1.4.2 + libmatroska v1.6.4
Video
ID : 1
Format : AVC
Format/Info : Advanced Video Codec
Format profile : High@L4.1
Format settings : CABAC / 12 Ref Frames
Format settings, CABAC : Yes
Format settings, Reference frames : 12 frames
Codec ID : V_MPEG4/ISO/AVC
Duration : 1 h 34 min
Bit rate : 2 207 kb/s
Width : 1 024 pixels
Height : 428 pixels
Display aspect ratio : 2.40:1
Frame rate mode : Constant
Frame rate : 23.976 (24000/1001) FPS
Color space : YUV
Chroma subsampling : 4:2:0
Bit depth : 8 bits
Scan type : Progressive
Bits/(Pixel*Frame) : 0.210
Stream size : 1.45 GiB (71%)
Title : [wolf1245.MediaBit]
Writing library : x264 core 157 r2958 57baac4
Encoding settings : cabac=1 / ref=12 / deblock=1:-3:-2 / analyse=0x3:0x133 / me=umh / subme=11 / psy=1 / psy_rd=1.00:0.00 / mixed_ref=1 / me_range=48 / chroma_me=1 / trellis=2 / 8x8dct=1 / cqm=0 / deadzone=21,11 / fast_pskip=1 / chroma_qp_offset=-2 / threads=10 / lookahead_threads=2 / sliced_threads=0 / nr=0 / decimate=1 / interlaced=0 / bluray_compat=0 / constrained_intra=0 / bframes=10 / b_pyramid=2 / b_adapt=2 / b_bias=0 / direct=3 / weightb=1 / open_gop=0 / weightp=2 / keyint=240 / keyint_min=24 / scenecut=40 / intra_refresh=0 / rc_lookahead=60 / rc=2pass / mbtree=1 / bitrate=2207 / ratetol=1.0 / qcomp=0.60 / qpmin=0 / qpmax=69 / qpstep=4 / cplxblur=20.0 / qblur=0.5 / vbv_maxrate=50000 / vbv_bufsize=62500 / nal_hrd=none / filler=0 / ip_ratio=1.40 / aq=1:0.80
Language : English
Default : Yes
Forced : No
Audio #1
ID : 2
Format : AC-3
Format/Info : Audio Coding 3
Commercial name : Dolby Digital
Codec ID : A_AC3
Duration : 1 h 34 min
Bit rate mode : Constant
Bit rate : 448 kb/s
Channel(s) : 6 channels
Channel layout : L R C LFE Ls Rs
Sampling rate : 48.0 kHz
Frame rate : 31.250 FPS (1536 SPF)
Bit depth : 32 bits
Compression mode : Lossy
Stream size : 303 MiB (14%)
Title : MVO | HDRezka Studio
Language : Russian
Service kind : Complete Main
Default : Yes
Forced : No
Audio #2
ID : 3
Format : AC-3
Format/Info : Audio Coding 3
Commercial name : Dolby Digital
Codec ID : A_AC3
Duration : 1 h 34 min
Bit rate mode : Constant
Bit rate : 448 kb/s
Channel(s) : 6 channels
Channel layout : L R C LFE Ls Rs
Sampling rate : 48.0 kHz
Frame rate : 31.250 FPS (1536 SPF)
Bit depth : 32 bits
Compression mode : Lossy
Stream size : 303 MiB (14%)
Title : ORIGINAL
Language : English
Service kind : Complete Main
Default : No
Forced : No
Text #1
ID : 4
Format : UTF-8
Codec ID : S_TEXT/UTF8
Codec ID/Info : UTF-8 Plain Text
Duration : 1 h 31 min
Bit rate : 50 b/s
Count of elements : 1286
Stream size : 33.7 KiB (0%)
Language : English
Default : No
Forced : No
Text #2
ID : 5
Format : UTF-8
Codec ID : S_TEXT/UTF8
Codec ID/Info : UTF-8 Plain Text
Duration : 1 h 32 min
Bit rate : 53 b/s
Count of elements : 1467
Stream size : 36.6 KiB (0%)
Title : SDH
Language : English
Default : No
Forced : No
Menu
00:00:00.000 : :Chapter 1
00:04:08.831 : :Chapter 2
00:13:19.548 : :Chapter 3
00:25:09.424 : :Chapter 4
00:35:49.480 : :Chapter 5
00:46:59.691 : :Chapter 6
00:54:57.460 : :Chapter 7
01:01:18.466 : :Chapter 8
01:08:17.510 : :Chapter 9
01:14:43.312 : :Chapter 10
01:19:02.863 : :Chapter 11
01:30:08.694 : :Chapter 12
Релиз от: &
Автор релиза:
piratbit.org



Скачать Красная река через торрент https://i114.fastpic.ru/big/2021/0402/ce/7bd1beabf7ea31bebcb3cc9cf04e2dce.png Скачать фильм Красная река через торрент бесплантно в хорошем качестве Описание: Молодой парень СиДжей убит двумя полицейскими, которые во время задержания подумали, что он собирается воспользоваться оружием. ... 10 10 3
Торрент: Зарегистрирован [2021-04-02 20:52] · скачан: 57 раз
Статус: √ проверено
Размер: 2.05 GB
Как cкачать? Как скачать Красная река через торрент | UTorrent

28-11-2019 20:33  

Отключить всю рекламу на сайте

    Дорогой пользователь! Огромная просьба, поблагодарите релизера, оцените раздачу и оставьте свои комментарий, если Вы скачали Красная река через торрент бесплатно! Внесите свою лепту в развитие PiratBit!
    Комментировать посты могут только пользователи прошедшие не сложную регистрацию
    Показать сообщения:    

    Красная река через торрент
    Скачать бесплатно Красная река
    Красная река скачать торрент
    Красная река смотреть онлайн
    Cкачать фильм Красная река бесплатно
    Красная река скачать торрент в хорошем качестве
    Красная река смотреть онлайн бесплатно в хорошем качестве


    Вы не можете начинать темы
    Вы не можете отвечать на сообщения
    Вы не можете редактировать свои сообщения
    Вы не можете удалять свои сообщения
    Вы не можете голосовать в опросах
    Вы не можете прикреплять файлы к сообщениям
    Вы можете скачивать файлы