1 сезон

1 сезон

iTunes

1

КиноПоиск HD

Кинопоиск HD

iTunes

13

1 сезон

RePack

30

Ultimate

ВАЖНО

ИГРА 18+

pack

RePack

MK11
pack

Легкие деньги

RePack

jed

RePack

fifa19

RePack

RDR2

RePack

NEED FOR SPEED™ PAYBACK

4 сезон

9 сезон

Бесстыжие 9 сезон

Все сериалы

все сериалы на PB.wtf

RePack

FAR CRY 5
  
Magnet ссылка

Безумие в Уэйкфилде / Wakefield / Сезон: 1 / Серии 1-4 из 8 (Джослин Мурхаус, Ким Мордонт) [2021, Австралия, Детектив, WEB-DLRip-AVC] MVO [Zone Vision] + DVO [Кубик в Кубе] piratbit.org

Безумие в Уэйкфилде через торрент piratbit.org

Раздают: 2 [ 0 KB/s ]
Размер: 3.98 GB | Добавлен: 1 д. 12 ч. назад | Торрент скачан:2 раза
Скачать  

04-04-2021 02:52 Безумие в Уэйкфилде Скачать торрент  

Безумие в Уэйкфилде / Wakefield


  • Год выпуска: 2021
  • Страна: Австралия
  • Жанр: Детектив
  • Продолжительность: ~ 00:55:00 (Серия)
  • Перевод: Профессиональный многоголосый [Zone Vision]
  • Перевод: Профессиональный (двухголосый) [Кубик в Кубе]
  • Субтитры: Русские
  • Режиссер: Джослин Мурхаус, Ким Мордонт
  • В ролях:
    Руди Дхармалингхам, Джералдина Хейквилл, Гарри Гринвуд, Бесси Холланд, Мэнди МакЭлхинни, Фелисити Уорд, Сэм Симмонс, Гай Саймон, Шапур Батливалла, Алисия Гардинер и др.
    Описание:


    Ник (Руди Дхармалингхам), медбрат в психиатрическом госпитале «Уэйкфилд», производит впечатление самого здравомыслящего человека в округе. Однако чем его пациентам становится лучше, тем сильнее его начинает давить груз собственных психологических проблем.
  • Рейтинг:

    rating


  • Качество: WEB-DLRip-AVC
  • Формат: :MKV
  • Видео кодек: AVC
  • Аудио кодек: AC3
  • Видео: 1493 Кбит/сек, 1024*576 (16:9), в 25,000 кадров/сек, AVC
  • Аудио №1: Русский 448 Кбит/сек, 48,0 КГц, 16 бит, 6 каналов, AC-3|[Zone Vision]|
  • Аудио №2: Русский 448 Кбит/сек, 48,0 КГц, 16 бит, 6 каналов, AC-3|[Кубик в Кубе]| - с цензурой
  • Аудио №3: Русский 448 Кбит/сек, 48,0 КГц, 16 бит, 6 каналов, AC-3|[Кубик в Кубе 18+]| - без цензуры
  • Аудио №4: Английский 448 Кбит/сек, 48,0 КГц, 16 бит, 6 каналов, AC-3
    Внимание! Раздача ведётся путём добавления новых серий; при каждом добавлении создаётся новый торрент. Чтобы начать докачку новой серии, пользователям необходимо сделать следующее:
    (1) остановить скачивание,
    (2) удалить старый торрент у себя из клиента (старые серии удалять не надо),
    (3) скачать новый торрент и запустить его у себя в клиенте вместо старого, при этом указать клиенту путь в старую папку куда и должно происходить скачивание новых серий.

    Ваш клиент при этом должен произвести хеширование (проверку) старой папки (если не производит сам - помогите ему сделать это), и будет докачивать только те серии которых у вас ещё нет. Старые серии при этом не удаляются, а продолжают раздаваться!

    Eсли вы уже удалили старые серии, то предотвратить повторную закачку старых серий можно, отжав галочку в соответствующих местах при запуске нового торрента. По возможности, желательно не удалять старые серии как можно дольше чтобы релизёр не столько продолжал раздавать старые серии, а смог сконцентрироваться на новых.
    Общее
    Уникальный идентификатор : 271960852056816064293074308923356376801 (0xCC99C13F02F072D10DB86679A1C06EE1)
    Полное имя : J:\Безумие в Уэйкфилде (Wakefield) Сезон 1\Wakefield.S01.E01.2021.WEB-DLRip-AVC. Zone Vision Кубик в Кубе.mkv
    Формат : Matroska
    Версия формата : Version 4
    Размер файла : 1,31 Гбайт
    Продолжительность : 55 м. 48 с.
    Общий поток : 3352 Кбит/сек
    Программа кодирования : XviD4PSP 8.0.59
    Библиотека кодирования : Lavf58.20.100
    ErrorDetectionType : Per level 1
    ENCODING_INFO : MATROSKA,WEBM > MKV Пользовательский

    Видео
    Идентификатор : 1
    Формат : AVC
    Формат/Информация : Advanced Video Codec
    Профиль формата : High@L3.1
    Настройки формата : CABAC / 4 Ref Frames
    Параметр CABAC формата : Да
    Параметр RefFrames формата : 4 кадра
    Идентификатор кодека : V_MPEG4/ISO/AVC
    Продолжительность : 55 м. 48 с.
    Битрейт : 1493 Кбит/сек
    Номинальный битрейт : 1800 Кбит/сек
    Ширина : 1024 пикселя
    Высота : 576 пикселей
    Соотношение сторон : 16:9
    Режим частоты кадров : Постоянный
    Частота кадров : 25,000 кадров/сек
    Цветовое пространство : YUV
    Субдискретизация насыщенности : 4:2:0
    Битовая глубина : 8 бит
    Тип развёртки : Прогрессивная
    Бит/(Пиксели*Кадры) : 0.101
    Размер потока : 596 Мбайт (45%)
    Библиотека кодирования : x264 core 157 r2969 d4099dd
    Настройки программы : cabac=1 / ref=3 / deblock=1:-1:-1 / analyse=0x3:0x133 / me=hex / subme=7 / psy=1 / psy_rd=1.00:0.20 / mixed_ref=1 / me_range=16 / chroma_me=1 / trellis=1 / 8x8dct=1 / cqm=0 / deadzone=21,11 / fast_pskip=1 / chroma_qp_offset=-3 / threads=9 / lookahead_threads=1 / sliced_threads=0 / nr=0 / decimate=1 / interlaced=0 / bluray_compat=0 / constrained_intra=0 / bframes=3 / b_pyramid=2 / b_adapt=2 / b_bias=0 / direct=3 / weightb=1 / open_gop=0 / weightp=2 / keyint=250 / keyint_min=25 / scenecut=40 / intra_refresh=0 / rc_lookahead=40 / rc=cbr / mbtree=1 / bitrate=1800 / ratetol=1.0 / qcomp=0.60 / qpmin=0 / qpmax=69 / qpstep=4 / vbv_maxrate=1800 / vbv_bufsize=1285 / nal_hrd=none / filler=0 / ip_ratio=1.40 / aq=1:1.00
    Язык : English
    Default : Да
    Forced : Нет
    ENCODING_INFO : H264 > X264 CBR 1800kbps HQ

    Аудио #1
    Идентификатор : 2
    Формат : AC-3
    Формат/Информация : Audio Coding 3
    Коммерческое название : Dolby Digital
    Идентификатор кодека : A_AC3
    Продолжительность : 55 м. 48 с.
    Вид битрейта : Постоянный
    Битрейт : 448 Кбит/сек
    Каналы : 6 каналов
    ChannelLayout : L R C LFE Ls Rs
    Частота : 48,0 КГц
    Частота кадров : 31,250 кадров/сек (1536 SPF)
    Битовая глубина : 16 бит
    Метод сжатия : С потерями
    Размер потока : 179 Мбайт (13%)
    Заголовок : Zone Vision
    Язык : Russian
    ServiceKind/String : Complete Main
    Default : Да
    Forced : Нет
    ENCODING_INFO : AC3 > AC3 CBR 448kbps

    Аудио #2
    Идентификатор : 3
    Формат : AC-3
    Формат/Информация : Audio Coding 3
    Коммерческое название : Dolby Digital
    Идентификатор кодека : A_AC3
    Продолжительность : 55 м. 48 с.
    Вид битрейта : Постоянный
    Битрейт : 448 Кбит/сек
    Каналы : 6 каналов
    ChannelLayout : L R C LFE Ls Rs
    Частота : 48,0 КГц
    Частота кадров : 31,250 кадров/сек (1536 SPF)
    Битовая глубина : 16 бит
    Метод сжатия : С потерями
    Размер потока : 179 Мбайт (13%)
    Заголовок : Кубик в Кубе
    Язык : Russian
    ServiceKind/String : Complete Main
    Default : Нет
    Forced : Нет
    ENCODING_INFO : AC3 > AC3 CBR 448kbps

    Аудио #3
    Идентификатор : 4
    Формат : AC-3
    Формат/Информация : Audio Coding 3
    Коммерческое название : Dolby Digital
    Идентификатор кодека : A_AC3
    Продолжительность : 55 м. 48 с.
    Вид битрейта : Постоянный
    Битрейт : 448 Кбит/сек
    Каналы : 6 каналов
    ChannelLayout : L R C LFE Ls Rs
    Частота : 48,0 КГц
    Частота кадров : 31,250 кадров/сек (1536 SPF)
    Битовая глубина : 16 бит
    Метод сжатия : С потерями
    Размер потока : 179 Мбайт (13%)
    Заголовок : Кубик в Кубе 18+
    Язык : Russian
    ServiceKind/String : Complete Main
    Default : Нет
    Forced : Нет
    ENCODING_INFO : AC3 > AC3 CBR 448kbps

    Аудио #4
    Идентификатор : 5
    Формат : AC-3
    Формат/Информация : Audio Coding 3
    Коммерческое название : Dolby Digital
    Идентификатор кодека : A_AC3
    Продолжительность : 55 м. 48 с.
    Вид битрейта : Постоянный
    Битрейт : 448 Кбит/сек
    Каналы : 6 каналов
    ChannelLayout : L R C LFE Ls Rs
    Частота : 48,0 КГц
    Частота кадров : 31,250 кадров/сек (1536 SPF)
    Битовая глубина : 16 бит
    Метод сжатия : С потерями
    Размер потока : 179 Мбайт (13%)
    Язык : English
    ServiceKind/String : Complete Main
    Default : Нет
    Forced : Нет
    ENCODING_INFO : AC3 > AC3 CBR 448kbps

    Текст
    Идентификатор : 6
    Формат : UTF-8
    Идентификатор кодека : S_TEXT/UTF8
    Идентификатор кодека/Информация : UTF-8 Plain Text
    Язык : Russian
    Default : Да
    Forced : Нет
    ENCODING_INFO : SUBRIP > SUBRIP

    Скриншоты:
    скриншот   скриншот   скриншот   скриншот   скриншот   скриншот   скриншот   
    скриншот  
    piratbit.org



  • Скачать Безумие в Уэйкфилде через торрент https://pic1.kartinco.top/new/img/2021-04/04/wzxtf8kygl8no4cu8fnw2kwyt.jpg Скачать фильм Безумие в Уэйкфилде через торрент бесплантно в хорошем качестве Описание: Ник (Руди Дхармалингхам), медбрат в психиатрическом госпитале «Уэйкфилд», производит впечатление самого здравомыслящего человека ... 10 10 1
    Торрент: Зарегистрирован [2021-04-08 23:12] · скачан: 2 раз
    Статус: не проверено
    Размер: 3.98 GB
    Как cкачать? Как скачать Безумие в Уэйкфилде через торрент | UTorrent

    28-11-2019 20:33  

    Отключить всю рекламу на сайте

      Дорогой пользователь! Огромная просьба, поблагодарите релизера, оцените раздачу и оставьте свои комментарий, если Вы скачали Безумие в Уэйкфилде через торрент бесплатно! Внесите свою лепту в развитие PiratBit!
      Комментировать посты могут только пользователи прошедшие не сложную регистрацию
      Показать сообщения:    

      Безумие в Уэйкфилде через торрент
      Скачать бесплатно Безумие в Уэйкфилде
      Безумие в Уэйкфилде скачать торрент
      Безумие в Уэйкфилде смотреть онлайн
      Cкачать фильм Безумие в Уэйкфилде бесплатно
      Безумие в Уэйкфилде скачать торрент в хорошем качестве
      Безумие в Уэйкфилде смотреть онлайн бесплатно в хорошем качестве


      Вы не можете начинать темы
      Вы не можете отвечать на сообщения
      Вы не можете редактировать свои сообщения
      Вы не можете удалять свои сообщения
      Вы не можете голосовать в опросах
      Вы не можете прикреплять файлы к сообщениям
      Вы можете скачивать файлы