1 сезон

1 сезон

iTunes

1

КиноПоиск HD

Кинопоиск HD

iTunes

13

1 сезон

RePack

30

Новинка

ВАЖНО

ИГРА 18+

pack

RePack

MK11
pack

Легкие деньги

RePack

jed

RePack

fifa19

RePack

RDR2

RePack

NEED FOR SPEED™ PAYBACK

4 сезон

9 сезон

Бесстыжие 9 сезон

Все сериалы

все сериалы на PB.wtf

RePack

FAR CRY 5
  
Magnet ссылка

Реинкарнация: Пришествие дьявола / Anything for Jackson (Джастин Дж. Дик) [2020, Ужасы, WEB-DLRip-AVC] DUB [iTunes] от MediaBit piratbit.org

Реинкарнация: Пришествие дьявола через торрент piratbit.org

Раздают: 11 [ 153 KB/s ]
Размер: 2.05 GB | Добавлен: 17 д. назад | Торрент скачан:294 раза
Скачать  

05-04-2021 08:16 Реинкарнация: Пришествие дьявола Скачать торрент  


Реинкарнация: Пришествие дьявола / Anything for Jackson
Информация о фильме:
Название: Реинкарнация: Пришествие дьявола
Оригинальное название: Anything for Jackson
Год выхода: 2020
Жанр: Ужасы
Режиссер: Джастин Дж. Дик

В ролях: Шейла Маккарти, Джулиан Ричингс, Константина Мантелос, Джош Круддас, Янник Биссон, Ланетт Уэр, Клер Столлери, Скотт Квальейру, Дэкстон Уилльям Ланд, Кейтлин Либ

Описание: Пожилая пара похищает беременную женщину и запирает её в загородном доме. Чтобы вернуть к жизни погибшего внука, они совершают над ней сатанинский ритуал, пытаясь поместить его душу в ещё нерождённого ребёнка. Но поскольку в колдовстве они совершенно не разбираются, их дом начинают заполонять беспокойные духи, среди которых есть и крайне зловредные.

rating

Страна: Канада
Студия: Vortex Productions
Продолжительность: 01:37:23
Перевод: Дублированный - iTunes



Информация о файле:
Кодек: AVC
Формат: MKV
Качество: WEB-DLRip-AVC
Видео: MPEG-4 AVC, 1024x436, 24.000 fps, 2179 kbps
Аудио RU: AC3, 6 ch, 48 kHz, 384 kbps
Аудио EN: AC3, 6 ch, 48 kHz, 448 kbps
Субтитры: Английские

x264 info: frame I:959 Avg QP:12.01 size: 62543
x264 info: frame P:27262 Avg QP:15.17 size: 23457
x264 info: frame B:112013 Avg QP:18.07 size: 7943
General
Unique ID : 58867658459654186162870009986372919178 (0x2C497FA5739B2BDA6C7919C89054DF8A)
Complete name : D:uTorrentРипы_от_wolf1245_MediaBitAnything for Jackson.2020.DUB.WEB-DLRip-AVC.[wolf1245.MediaBit].mkv
Format : Matroska
Format version : Version 4
File size : 2.05 GiB
Duration : 1 h 37 min
Overall bit rate : 3 010 kb/s
Movie name : Anything for Jackson.2020.DUB.WEB-DLRip-AVC.[wolf1245.MediaBit]
Encoded date : UTC 2021-04-05 08:05:14
Writing application : mkvmerge v55.0.0 ('Waiting For Space') 64-bit
Writing library : libebml v1.4.2 + libmatroska v1.6.4
Video
ID : 1
Format : AVC
Format/Info : Advanced Video Codec
Format profile : High@L4.1
Format settings : CABAC / 12 Ref Frames
Format settings, CABAC : Yes
Format settings, Reference frames : 12 frames
Codec ID : V_MPEG4/ISO/AVC
Duration : 1 h 37 min
Bit rate : 2 179 kb/s
Width : 1 024 pixels
Height : 436 pixels
Display aspect ratio : 2.35:1
Frame rate mode : Constant
Frame rate : 24.000 FPS
Color space : YUV
Chroma subsampling : 4:2:0
Bit depth : 8 bits
Scan type : Progressive
Bits/(Pixel*Frame) : 0.203
Stream size : 1.48 GiB (72%)
Title : [wolf1245.MediaBit]
Writing library : x264 core 157 r2958 57baac4
Encoding settings : cabac=1 / ref=12 / deblock=1:-3:-3 / analyse=0x3:0x133 / me=umh / subme=11 / psy=1 / psy_rd=1.00:0.05 / mixed_ref=1 / me_range=48 / chroma_me=1 / trellis=2 / 8x8dct=1 / cqm=0 / deadzone=21,11 / fast_pskip=1 / chroma_qp_offset=-3 / threads=10 / lookahead_threads=2 / sliced_threads=0 / nr=0 / decimate=1 / interlaced=0 / bluray_compat=0 / constrained_intra=0 / bframes=10 / b_pyramid=2 / b_adapt=2 / b_bias=0 / direct=3 / weightb=1 / open_gop=0 / weightp=2 / keyint=240 / keyint_min=24 / scenecut=40 / intra_refresh=0 / rc_lookahead=60 / rc=2pass / mbtree=1 / bitrate=2179 / ratetol=1.0 / qcomp=0.60 / qpmin=0 / qpmax=69 / qpstep=4 / cplxblur=20.0 / qblur=0.5 / vbv_maxrate=50000 / vbv_bufsize=62500 / nal_hrd=none / filler=0 / ip_ratio=1.40 / aq=1:0.80
Language : English
Default : Yes
Forced : No
Color range : Limited
Color primaries : BT.709
Transfer characteristics : BT.709
Matrix coefficients : BT.709
Audio #1
ID : 2
Format : AC-3
Format/Info : Audio Coding 3
Commercial name : Dolby Digital
Codec ID : A_AC3
Duration : 1 h 37 min
Bit rate mode : Constant
Bit rate : 384 kb/s
Channel(s) : 6 channels
Channel layout : L R C LFE Ls Rs
Sampling rate : 48.0 kHz
Frame rate : 31.250 FPS (1536 SPF)
Bit depth : 32 bits
Compression mode : Lossy
Stream size : 267 MiB (13%)
Title : DUB | iTunes
Language : Russian
Service kind : Complete Main
Default : Yes
Forced : No
Audio #2
ID : 3
Format : AC-3
Format/Info : Audio Coding 3
Commercial name : Dolby Digital
Codec ID : A_AC3
Duration : 1 h 37 min
Bit rate mode : Constant
Bit rate : 448 kb/s
Channel(s) : 6 channels
Channel layout : L R C LFE Ls Rs
Sampling rate : 48.0 kHz
Frame rate : 31.250 FPS (1536 SPF)
Bit depth : 32 bits
Compression mode : Lossy
Stream size : 312 MiB (15%)
Title : Original
Language : English
Service kind : Complete Main
Default : No
Forced : No
Text #1
ID : 4
Format : UTF-8
Codec ID : S_TEXT/UTF8
Codec ID/Info : UTF-8 Plain Text
Duration : 1 h 37 min
Bit rate : 45 b/s
Count of elements : 1287
Stream size : 32.2 KiB (0%)
Title : Full
Language : English
Default : No
Forced : No
Text #2
ID : 5
Format : UTF-8
Codec ID : S_TEXT/UTF8
Codec ID/Info : UTF-8 Plain Text
Duration : 1 h 37 min
Bit rate : 52 b/s
Count of elements : 1542
Stream size : 37.5 KiB (0%)
Title : SDH
Language : English
Default : No
Forced : No
Релиз от: &
Автор релиза:
piratbit.org



Скачать Реинкарнация: Пришествие дьявола через торрент https://i114.fastpic.ru/big/2021/0405/e1/53092d8fac0db2dc6a1541dab1a16fe1.jpg Скачать фильм Реинкарнация: Пришествие дьявола через торрент бесплантно в хорошем качестве Описание: Пожилая пара похищает беременную женщину и запирает её в загородном доме. Чтобы вернуть к жизни погибшего внука, они совершают ... 10 10 14
Info! Золотая раздача, скачанное не засчитывается.
Торрент: Зарегистрирован [2021-04-05 08:16] · скачан: 294 раз
Статус: √ проверено
Размер: 2.05 GB
Как cкачать? Как скачать Реинкарнация: Пришествие дьявола через торрент | UTorrent

28-11-2019 20:33  

Отключить всю рекламу на сайте

    Дорогой пользователь! Огромная просьба, поблагодарите релизера, оцените раздачу и оставьте свои комментарий, если Вы скачали Реинкарнация: Пришествие дьявола через торрент бесплатно! Внесите свою лепту в развитие PiratBit!
    Комментировать посты могут только пользователи прошедшие не сложную регистрацию
    Показать сообщения:    

    Реинкарнация: Пришествие дьявола через торрент
    Скачать бесплатно Реинкарнация: Пришествие дьявола
    Реинкарнация: Пришествие дьявола скачать торрент
    Реинкарнация: Пришествие дьявола смотреть онлайн
    Cкачать фильм Реинкарнация: Пришествие дьявола бесплатно
    Реинкарнация: Пришествие дьявола скачать торрент в хорошем качестве
    Реинкарнация: Пришествие дьявола смотреть онлайн бесплатно в хорошем качестве


    Вы не можете начинать темы
    Вы не можете отвечать на сообщения
    Вы не можете редактировать свои сообщения
    Вы не можете удалять свои сообщения
    Вы не можете голосовать в опросах
    Вы не можете прикреплять файлы к сообщениям
    Вы можете скачивать файлы