1 сезон

1 сезон

iTunes

1

КиноПоиск HD

Кинопоиск HD

iTunes

13

1 сезон

RePack

30

Новинка

ВАЖНО

ИГРА 18+

pack

RePack

MK11
pack

Легкие деньги

RePack

jed

RePack

fifa19

RePack

RDR2

RePack

NEED FOR SPEED™ PAYBACK

4 сезон

9 сезон

Бесстыжие 9 сезон

Все сериалы

все сериалы на PB.wtf

RePack

FAR CRY 5
  
Magnet ссылка

Городской ковбой / Concrete Cowboy (Рики Стауб) [2020, Драма, WEB-DL 1080p] [DVO] (Pazl Voice) piratbit.org

Городской ковбой через торрент piratbit.org

Раздают: 1 [ 0 KB/s ]
Размер: 6.38 GB | Добавлен: 15 д. назад | Торрент скачан:25 раз
Скачать  

05-04-2021 10:19 Городской ковбой Скачать торрент  

Городской ковбой / Concrete Cowboy
Год выпуска: 2020
Выпущено: Великобритания, США
Жанр: Драма
Продолжительность: 01:53:03
Перевод: Любительский (двухголосый закадровый) Pazl Voice
Субтитры: Русские, английские (SDH), украинские
Режиссер: Рики Стауб
В ролях: Идрис Эльба, Лоррейн Туссен, Калеб Маклафлин, Джаррель Джером, Метод Мэн, Свен Теммел, Байрон Бауэрс, Терез Лэнд, Дженнифер Винер, Кристофф Бродер
Описание: 15-летнего Коула выгнали из школы за драку. Мать везёт его из родного Детройта в Филадельфию и там в ночи выталкивает из машины со словами: «Тут живёт твой отец». За углом в баре парень, и правда, обнаруживает отца. А ещё видит лошадей и не совсем в это верит. И уж совсем пугается, когда находит лошадь прямо в своём новом доме и понимает, что теперь он живёт в конюшне.

rating

Качество: WEB-DL 1080p
Формат: MKV
Видео: MPEG-4 AVC, 7110 Кбит/с, 1920x1080
Аудио #1: 48 kHz, AC3 Dolby Digital, 3/2 (L,C,R,l,r) + LFE ch, ~448.00 kbps avg (RUS)
Аудио #2: 48 kHz, E-AC3 Dolby Digital, 3/2 (L,C,R,l,r) + LFE ch, ~640.00 kbps avg (ENG)
Общее
Уникальный идентификатор: 139370178158069899095317896190931117895 (0x68D9B84E7100DB818E493016BEE22747)
Полное имя: C: \ Users \ Nick \ Downloads \ Городской ковбой_2020_WEB-DL1080p_From_KinoPub.mkv
Формат: Matroska
Версия формата: Версия 4
Размер файла: 6,38 Гбайт
Продолжительность: 1 ч. 51 м.
Режим общего битрейта: Переменный
Общий поток: 8 164 Кбит / сек
Название фильма: Городской ковбой_2020_WEB-DL1080p_From_KinoPub
Дата кодирования: UTC 2021-04-04 14:49:53
Программа кодирования: mkvmerge v53.0.0 ('Fool's Gold') 64-битная
Библиотека кодирования: libebml v1.4.1 + libmatroska v1.6.2

Видео
Идентификатор: 1
Формат: AVC
Формат / Информация: Расширенный видеокодек
Формат профиля: High @ L4
Формат настроек: CABAC / 4 Ref Frames
Параметр формата CABAC: Да
Параметр RefFrames формата: 4 кадра
Идентификатор кодека: V_MPEG4 / ISO / AVC
Продолжительность: 1 ч. 51 м.
Вид битрейта: Переменный
Битрейт: 7 110 Кбит / сек
Максимальный битрейт: 20,0 Мбит / сек
Ширина: 1920 пикселей
Высота: 1 080 пикселей
Соотношение сторон: 16: 9
Режим частоты кадров: Постоянный
Частота кадров: 24,000 кадра / сек
Цветовое пространство: YUV
Субдискретизация насыщенности: 4: 2: 0
Битовая глубина: 8 бит
Тип развёртки: Прогрессивная
Бит / (Пиксели * Кадры): 0.143
Размер потока: 5,52 Гбайт (87%)
Библиотека кодирования: x264 core 148 r2722 1b0121b
Настройки программы: cabac = 1 / ref = 4 / deblock = 1: 0: 0 / analysis = 0x3: 0x111 / me = umh / subme = 10 / psy = 1 / psy_rd = 1.00: 0.00 / mixed_ref = 1 / me_range = 120 / chroma_me = 1 / trellis = 2 / 8x8dct = 1 / cqm = 0 / deadzone = 21,11 / fast_pskip = 1 / chroma_qp_offset = -2 / thread = 8 / lookahead_threads = 2 / sled_threads = 0 / nr = 0 / decimate = 1 / interlaced = 0 / bluray_compat = 0 / stitchable = 1 / constrained_intra = 0 / bframes = 16 / b_pyramid = 2 / b_adapt = 2 / b_bias = 0 / direct = 3 / weightb = 1 / open_gop = 0 / weightp = 2 / keyint = 240 / keyint_min = 121 / scenecut = 0 / intra_refresh = 0 / rc_lookahead = 240 / rc = crf / mbtree = 1 / crf = 16.0 / qcomp = 0.50 / qpmin = 6 / qpmax = 51 / qpstep = 4 / vbv_maxrate = 20000 / vbv_bufsize = 25000 / crf_max = 0,0 / nal_hrd = vbr / filler = 0 / ip_ratio = 1,40 / aq = 1: 0,80
По умолчанию: Да
Принудительно: Нет

Аудио # 1
Идентификатор: 2
Формат: AC-3
Формат / Информация: Audio Coding 3
Коммерческое название: Dolby Digital
Идентификатор кодека: A_AC3
Продолжительность: 1 ч. 51 м.
Вид битрейта: Постоянный
Битрейт: 448 Кбит / сек
Каналы: 6 каналов
Расположение каналов: LRC LFE Ls Rs
Частота: 48,0 КГц
Частота кадров: 31 250 кадров / сек (1536 SPF)
Метод сжатия: С потерями
Размер потока: 358 Мбайт (5%)
Заголовок: Пазл Голос | КиноПаб
Язык: русский
Вид услуги: Полная основная
По умолчанию: Да
Принудительно: Нет

Аудио # 2
Идентификатор: 3
Формат: E-AC-3
Формат / Информация: Улучшенный AC-3
Коммерческое название: Dolby Digital Plus
Идентификатор кодека: A_EAC3
Продолжительность: 1 ч. 51 м.
Вид битрейта: Постоянный
Битрейт: 640 Кбит / сек
Каналы: 6 каналов
Расположение каналов: LRC LFE Ls Rs
Частота: 48,0 КГц
Частота кадров: 31 250 кадров / сек (1536 SPF)
Метод сжатия: С потерями
Размер потока: 512 Мбайт (8%)
Заголовок: английский
Язык: английский
Вид услуги: Полная основная
По умолчанию: Нет
Принудительно: Нет

Текст # 1
Идентификатор: 4
Формат: UTF-8
Идентификатор кодека: S_TEXT / UTF8
Идентификатор кодека / Информация: UTF-8 Plain Text
Продолжительность: 1 ч. 50 м.
Битрейт: 66 бит / сек
Количество элементов: 1208
Размер потока: 53,3 Кбайт (0%)
Заголовок: Русский
Язык: русский
По умолчанию: Нет
Принудительно: Нет

Текст # 2
Идентификатор: 5
Формат: UTF-8
Идентификатор кодека: S_TEXT / UTF8
Идентификатор кодека / Информация: UTF-8 Plain Text
Продолжительность: 1 ч. 50 м.
Битрейт: 62 бит / сек
Количество элементов: 1199
Размер потока: 50,8 Кбайт (0%)
Заголовок: украинский
Язык: украинский
По умолчанию: Нет
Принудительно: Нет

Текст # 3
Идентификатор: 6
Формат: UTF-8
Идентификатор кодека: S_TEXT / UTF8
Идентификатор кодека / Информация: UTF-8 Plain Text
Продолжительность: 1 ч. 50 м.
Битрейт: 71 бит / сек
Количество элементов: 1715
Размер потока: 58,1 Кбайт (0%)
Заголовок: английский [SDH]
Язык: английский
По умолчанию: Нет
Принудительно: Нет

скриншот  скриншот  скриншот  
piratbit.org



Скачать Городской ковбой через торрент https://i114.fastpic.ru/big/2021/0405/a6/47127acee6c4479b0f201db918a1cda6.jpg Скачать фильм Городской ковбой через торрент бесплантно в хорошем качестве Описание: 15-летнего Коула выгнали из школы за драку. Мать везёт его из родного Детройта в Филадельфию и там в ночи выталкивает из машины ... 10 10 3
Торрент: Зарегистрирован [2021-04-05 10:19] · скачан: 25 раз
Статус: T временная
Размер: 6.38 GB
Как cкачать? Как скачать Городской ковбой через торрент | UTorrent

28-11-2019 20:33  

Отключить всю рекламу на сайте

05-04-2021 12:09 Городской ковбой Скачать торрент  

Ниггер - кавбой?)))piratbit.org
Kkillermax2013 писал(а):

а Вы ожидали увидеть азиата или еврея )) ?



05-04-2021 15:22 Городской ковбой Скачать торрент  

Опять одни нигеры, думал посмотрю.
Интересно насколько у них доход упал от фильмов в которых такой процент негров ?piratbit.org



05-04-2021 19:29 Городской ковбой Скачать торрент  

нинасколько. Наоборот, думаю... блек ливс метер, все дела, толерастия матерела....
Я о другом. Судя по описанию- это какой то треш в духе "асилума"......piratbit.org



    Дорогой пользователь! Огромная просьба, поблагодарите релизера, оцените раздачу и оставьте свои комментарий, если Вы скачали Городской ковбой через торрент бесплатно! Внесите свою лепту в развитие PiratBit!
    Комментировать посты могут только пользователи прошедшие не сложную регистрацию
    Показать сообщения:    

    Городской ковбой через торрент
    Скачать бесплатно Городской ковбой
    Городской ковбой скачать торрент
    Городской ковбой смотреть онлайн
    Cкачать фильм Городской ковбой бесплатно
    Городской ковбой скачать торрент в хорошем качестве
    Городской ковбой смотреть онлайн бесплатно в хорошем качестве


    Вы не можете начинать темы
    Вы не можете отвечать на сообщения
    Вы не можете редактировать свои сообщения
    Вы не можете удалять свои сообщения
    Вы не можете голосовать в опросах
    Вы не можете прикреплять файлы к сообщениям
    Вы можете скачивать файлы