1 сезон

1 сезон

iTunes

1

КиноПоиск HD

Кинопоиск HD

iTunes

13

1 сезон

RePack

30

Новинка

ВАЖНО

ИГРА 18+

pack

RePack

MK11
pack

Легкие деньги

RePack

jed

RePack

fifa19

RePack

RDR2

RePack

NEED FOR SPEED™ PAYBACK

4 сезон

9 сезон

Бесстыжие 9 сезон

Все сериалы

все сериалы на PB.wtf

RePack

FAR CRY 5
  
Magnet ссылка

Черная Ева в Гонконге (Черная Эммануэль в Японии) / Eva nera (Black Cobra Woman) (Джо Д’Амато) [1976 г., драма, мелодрама, эротика, BDRip 720p, Антон Алексеев] от ExKinoRay piratbit.org

Черная Ева в Гонконге через торрент piratbit.org

Раздают: 1 [ 0 KB/s ]
Размер: 5 GB | Добавлен: 16 д. назад | Торрент скачан:39 раз
Скачать  

06-04-2021 05:17 Черная Ева в Гонконге Скачать торрент  

Черная Ева в Гонконге (Черная Эммануэль в Японии) / Eva nera (Black Cobra Woman)
Год выпуска: 1976
Страна: Италия
Жанр: драма, мелодрама, эротика
Продолжительность: 01:37:00
Перевод: Авторский одноголосый Антон Алексеев
Субтитры: Английские

Режиссер: Джо Д’Амато

Премьера в мире: 5 августа 1976

rating

В ролях: Лаура Гемсер, Джек Пэланс, Габриэле Тинти, Мишель Штарк, Зигги Цангер, Гуидо Мариотти, Дженни Лианг, Койке Махоко

Описание: Ева приезжает в Гонконг. Увидев ее выступление со змеей, богатый плейбой по имени Джудас, так же одержимый змеями, заинтересовывается ею. Он осыпает девушку подарками и в конечном итоге нанимает ее, чтобы Ева заботилась о его змеях, пока сам уезжает по делам. Дела набирают зловещий оборот...

Качество: BDRip 720p
Формат: MKV
Видео кодек: MPEG4
Аудио кодек: AC3
Видео: 7000 Кбит/с, 1280x692, 23.976 кадра/сек
Аудио#1: Русский (AC3, 2 ch, 192 Кбит/с, 48 КГц)
Аудио#2: Английский (AC3, 2 ch, 192 Кбит/с, 48 КГц)

x264 [info]: profile High, level 4.1
x264 [info]: frame I:790 Avg QP:15.00 size:124494
x264 [info]: frame P:27743 Avg QP:17.28 size: 59997
x264 [info]: frame B:111027 Avg QP:18.79 size: 29983
-----
Общее
Уникальный идентификатор : 235027525599809817813787694898358944013 (0xB0D0A7A98B591404A83371F42646810D)
Полное имя : D:\MyRips\Black.Cobra.Woman.1976.BDRip720p.ExKinoRay.mkv
Формат : Matroska
Версия формата : Version 2
Размер файла : 5,00 Гбайт
Продолжительность : 1 ч. 37 м.
Общий поток : 7384 Кбит/сек
Дата кодирования : UTC 2021-04-06 03:08:34
Программа кодирования : mkvmerge v7.8.0 ('River Man') 32bit built on Apr 3 2015 12:11:22
Библиотека кодирования : libebml v1.3.1 + libmatroska v1.4.2

Видео
Идентификатор : 1
Формат : AVC
Формат/Информация : Advanced Video Codec
Профиль формата : High@L4.1
Настройки формата : CABAC / 9 Ref Frames
Параметр CABAC формата : Да
Параметр RefFrames формата : 9 кадров
Идентификатор кодека : V_MPEG4/ISO/AVC
Продолжительность : 1 ч. 37 м.
Битрейт : 7000 Кбит/сек
Ширина : 1280 пикселей
Высота : 692 пикселя
Соотношение сторон : 1,85:1
Режим частоты кадров : Постоянный
Частота кадров : 23,976 (24000/1001) кадра/сек
Цветовое пространство : YUV
Субдискретизация насыщенности : 4:2:0
Битовая глубина : 8 бит
Тип развёртки : Прогрессивная
Бит/(Пиксели*Кадры) : 0.330
Размер потока : 4,64 Гбайт (93%)
Библиотека кодирования : x264 core 152 r2851 ba24899
Настройки программы : cabac=1 / ref=9 / deblock=1:-3:-2 / analyse=0x3:0x113 / me=umh / subme=10 / psy=1 / psy_rd=1.00:0.10 / mixed_ref=1 / me_range=32 / chroma_me=1 / trellis=2 / 8x8dct=1 / cqm=0 / deadzone=21,11 / fast_pskip=0 / chroma_qp_offset=-3 / threads=6 / lookahead_threads=1 / sliced_threads=0 / nr=0 / decimate=0 / interlaced=0 / bluray_compat=0 / constrained_intra=0 / bframes=12 / b_pyramid=2 / b_adapt=2 / b_bias=0 / direct=3 / weightb=1 / open_gop=0 / weightp=2 / keyint=240 / keyint_min=23 / scenecut=40 / intra_refresh=0 / rc=2pass / mbtree=0 / bitrate=7000 / ratetol=1.0 / qcomp=0.60 / qpmin=0 / qpmax=69 / qpstep=4 / cplxblur=20.0 / qblur=0.5 / ip_ratio=1.40 / pb_ratio=1.30 / aq=3:1.00
Язык : English
Default : Да
Forced : Нет
Цветовой диапазон : Limited
Основные цвета : BT.709
Характеристики трансфера : BT.709
Коэффициенты матрицы : BT.709

Аудио #1
Идентификатор : 2
Формат : AC-3
Формат/Информация : Audio Coding 3
Коммерческое название : Dolby Digital
Идентификатор кодека : A_AC3
Продолжительность : 1 ч. 37 м.
Вид битрейта : Постоянный
Битрейт : 192 Кбит/сек
Каналы : 2 канала
Channel layout : L R
Частота : 48,0 КГц
Частота кадров : 31,250 кадров/сек (1536 SPF)
Битовая глубина : 16 бит
Метод сжатия : С потерями
Размер потока : 133 Мбайт (3%)
Заголовок : Авторский (Алексеев)
Язык : Russian
ServiceKind/String : Complete Main
Default : Да
Forced : Нет

Аудио #2
Идентификатор : 3
Формат : AC-3
Формат/Информация : Audio Coding 3
Коммерческое название : Dolby Digital
Идентификатор кодека : A_AC3
Продолжительность : 1 ч. 37 м.
Вид битрейта : Постоянный
Битрейт : 192 Кбит/сек
Каналы : 2 канала
Channel layout : L R
Частота : 48,0 КГц
Частота кадров : 31,250 кадров/сек (1536 SPF)
Битовая глубина : 16 бит
Метод сжатия : С потерями
Размер потока : 133 Мбайт (3%)
Язык : English
ServiceKind/String : Complete Main
Default : Нет
Forced : Нет

Текст
Идентификатор : 4
Формат : UTF-8
Идентификатор кодека : S_TEXT/UTF8
Идентификатор кодека/Информация : UTF-8 Plain Text
Язык : English
Default : Нет
Forced : Нет

Меню
00:00:00.000 : en:(01)00:00:00:000
00:04:53.334 : en:(02)00:04:53:334
00:09:16.138 : en:(03)00:09:16:138
00:16:33.742 : en:(04)00:16:33:742
00:25:14.846 : en:(05)00:25:14:846
00:32:31.783 : en:(06)00:32:31:783
00:43:21.473 : en:(07)00:43:21:473
00:51:51.525 : en:(08)00:51:51:525
01:00:55.068 : en:(09)01:00:55:068
01:06:31.404 : en:(10)01:06:31:404
01:15:27.773 : en:(11)01:15:27:773
01:22:16.139 : en:(12)01:22:16:139
01:31:11.215 : en:(13)01:31:11:215

piratbit.org



Скачать Черная Ева в Гонконге через торрент https://img10.lostpic.net/2021/04/06/f927b298e2e1c9e24f9480149a62fc98.jpg Скачать фильм Черная Ева в Гонконге через торрент бесплантно в хорошем качестве Описание: Ева приезжает в . Увидев ее выступление со змеей, богатый плейбой по имени Джудас, так же одержимый змеями, ... 9 10 2
Info! Золотая раздача, скачанное не засчитывается.
Торрент: Зарегистрирован [2021-04-06 05:17] · скачан: 39 раз
Статус: √ проверено
Размер: 5 GB
Как cкачать? Как скачать Черная Ева в Гонконге через торрент | UTorrent

28-11-2019 20:33  

Отключить всю рекламу на сайте

    Дорогой пользователь! Огромная просьба, поблагодарите релизера, оцените раздачу и оставьте свои комментарий, если Вы скачали Черная Ева в Гонконге через торрент бесплатно! Внесите свою лепту в развитие PiratBit!
    Комментировать посты могут только пользователи прошедшие не сложную регистрацию
    Показать сообщения:    

    Черная Ева в Гонконге через торрент
    Скачать бесплатно Черная Ева в Гонконге
    Черная Ева в Гонконге скачать торрент
    Черная Ева в Гонконге смотреть онлайн
    Cкачать фильм Черная Ева в Гонконге бесплатно
    Черная Ева в Гонконге скачать торрент в хорошем качестве
    Черная Ева в Гонконге смотреть онлайн бесплатно в хорошем качестве


    Вы не можете начинать темы
    Вы не можете отвечать на сообщения
    Вы не можете редактировать свои сообщения
    Вы не можете удалять свои сообщения
    Вы не можете голосовать в опросах
    Вы не можете прикреплять файлы к сообщениям
    Вы можете скачивать файлы