1 сезон

1 сезон

iTunes

1

КиноПоиск HD

Кинопоиск HD

iTunes

13

1 сезон

RePack

30

Новинка

ВАЖНО

ИГРА 18+

pack

RePack

MK11
pack

Легкие деньги

RePack

jed

RePack

fifa19

RePack

RDR2

RePack

NEED FOR SPEED™ PAYBACK

4 сезон

9 сезон

Бесстыжие 9 сезон

Все сериалы

все сериалы на PB.wtf

RePack

FAR CRY 5
  
Magnet ссылка

Шоу на краю света / Каникулы в Африке / Rendez-vous chez les Malawas (Джеймс Ют) [2019, Комедия, WEB-DLRip-AVC] MVO [iTunes] от MediaBit piratbit.org

Шоу на краю света через торрент piratbit.org

Раздают: 8 [ 0 KB/s ]
Размер: 2.05 GB | Добавлен: 16 д. назад | Торрент скачан:186 раз
Скачать  

06-04-2021 18:27 Шоу на краю света Скачать торрент  


Шоу на краю света / Каникулы в Африке / Rendez-vous chez les Malawas
Информация о фильме:
Название: Шоу на краю света / Каникулы в Африке
Оригинальное название: Rendez-vous chez les Malawas
Год выхода: 2019
Жанр: Комедия
Режиссер: Джеймс Ют

В ролях: Кристиан Клавье, Микаэль Юн, Рамзи Бедиа, Сильви Тестю, Паскаль Элбе, Франсуа Леванталь, Басс Дем, Камилла Жапи
Описание: Известный телеведущий, знаменитый стендап-комик, звезда ветеринарного шоу и всеми любимый футболист отправляются в Африку на съёмки шоу «Сафари со звездами». Сначала они узнают, что все надо делать самим, затем у них отбирают мобильные телефоны. После полета через песчаную бурю они наконец-то добираются до основного пункта назначения — деревни племени малави. Вокруг дикие звери и невероятная первозданная природа. К тому же четверо участников должны найти общий язык и между собой, и с туземцами. Срежиссированное приключение очень быстро выходит из-под контроля — участники шоу решают сбежать и самостоятельно добраться до цивилизации.



Страна: Франция, Бельгия
Студия: Eskwad, Pathé, TF1 Films Production
Продолжительность: 01:32:19
Перевод: Профессиональный (многоголосый, закадровый) - iTunes



Информация о файле:
Кодек: AVC
Формат: MKV
Качество: WEB-DLRip-AVC
Видео: MPEG-4 AVC, 1024x552, 24.000 fps, 2600 kbps
Аудио RU: AC3, 2 ch, 48 kHz, 192 kbps
Аудио EN: AC3, 6 ch, 48 kHz, 384 kbps
Навигация по главам: Да

General
Unique ID : 189784496214836911088849755511673745794 (0x8EC72A17B1F88EEA52E3BF3F34FE7182)
Complete name : D:uTorrentРипы_от_wolf1245_MediaBitRendez.vous.chez.les.Malawas.2019.iTunes.MVO.WEB-DLRip-AVC.[wolf1245.MediaBit].mkv
Format : Matroska
Format version : Version 4
File size : 2.05 GiB
Duration : 1 h 32 min
Overall bit rate : 3 176 kb/s
Movie name : Rendez.vous.chez.les.Malawas.2019.iTunes.MVO.WEB-DLRip-AVC.[wolf1245.MediaBit]
Encoded date : UTC 2021-04-06 18:13:01
Writing application : mkvmerge v56.0.0 ('Strasbourg / St. Denis') 64-bit
Writing library : libebml v1.4.2 + libmatroska v1.6.4
Video
ID : 1
Format : AVC
Format/Info : Advanced Video Codec
Format profile : High@L4.1
Format settings : CABAC / 12 Ref Frames
Format settings, CABAC : Yes
Format settings, Reference frames : 12 frames
Codec ID : V_MPEG4/ISO/AVC
Duration : 1 h 32 min
Bit rate : 2 600 kb/s
Width : 1 024 pixels
Height : 552 pixels
Display aspect ratio : 1.85:1
Frame rate mode : Constant
Frame rate : 24.000 FPS
Color space : YUV
Chroma subsampling : 4:2:0
Bit depth : 8 bits
Scan type : Progressive
Bits/(Pixel*Frame) : 0.192
Stream size : 1.68 GiB (82%)
Title : [wolf1245.MediaBit]
Writing library : x264 core 157 r2958 57baac4
Encoding settings : cabac=1 / ref=12 / deblock=1:0:0 / analyse=0x3:0x133 / me=umh / subme=10 / psy=1 / psy_rd=1.00:0.00 / mixed_ref=1 / me_range=32 / chroma_me=1 / trellis=2 / 8x8dct=1 / cqm=0 / deadzone=21,11 / fast_pskip=1 / chroma_qp_offset=-2 / threads=10 / lookahead_threads=2 / sliced_threads=0 / nr=0 / decimate=1 / interlaced=0 / bluray_compat=0 / constrained_intra=0 / bframes=10 / b_pyramid=2 / b_adapt=2 / b_bias=0 / direct=3 / weightb=1 / open_gop=0 / weightp=2 / keyint=240 / keyint_min=24 / scenecut=40 / intra_refresh=0 / rc_lookahead=60 / rc=2pass / mbtree=1 / bitrate=2600 / ratetol=1.0 / qcomp=0.60 / qpmin=0 / qpmax=69 / qpstep=4 / cplxblur=20.0 / qblur=0.5 / vbv_maxrate=50000 / vbv_bufsize=62500 / nal_hrd=none / filler=0 / ip_ratio=1.40 / aq=1:0.70
Language : English
Default : Yes
Forced : No
Color range : Limited
Color primaries : BT.709
Transfer characteristics : BT.709
Matrix coefficients : BT.709
Audio #1
ID : 2
Format : AC-3
Format/Info : Audio Coding 3
Commercial name : Dolby Digital
Codec ID : A_AC3
Duration : 1 h 32 min
Bit rate mode : Constant
Bit rate : 192 kb/s
Channel(s) : 2 channels
Channel layout : L R
Sampling rate : 48.0 kHz
Frame rate : 31.250 FPS (1536 SPF)
Bit depth : 32 bits
Compression mode : Lossy
Stream size : 127 MiB (6%)
Title : MVO | iTunes
Language : Russian
Service kind : Complete Main
Default : Yes
Forced : No
Audio #2
ID : 3
Format : AC-3
Format/Info : Audio Coding 3
Commercial name : Dolby Digital
Codec ID : A_AC3
Duration : 1 h 32 min
Bit rate mode : Constant
Bit rate : 384 kb/s
Channel(s) : 6 channels
Channel layout : L R C LFE Ls Rs
Sampling rate : 48.0 kHz
Frame rate : 31.250 FPS (1536 SPF)
Bit depth : 32 bits
Compression mode : Lossy
Stream size : 254 MiB (12%)
Title : Original
Language : French
Service kind : Complete Main
Default : No
Forced : No
Menu
00:00:00.000 : :Chapitre 01
00:09:59.958 : :Chapitre 02
00:17:59.458 : :Chapitre 03
00:24:43.833 : :Chapitre 04
00:31:46.708 : :Chapitre 05
00:40:38.708 : :Chapitre 06
00:47:17.791 : :Chapitre 07
00:56:52.708 : :Chapitre 08
01:04:48.833 : :Chapitre 09
01:11:40.041 : :Chapitre 10
01:20:27.916 : :Chapitre 11
Релиз от: &
Автор релиза:
piratbit.org



Скачать Шоу на краю света через торрент https://i114.fastpic.ru/big/2021/0406/92/5dc2f2ced5fa9596317c4e1d2c42ab92.jpeg Скачать фильм Шоу на краю света через торрент бесплантно в хорошем качестве Описание: Известный телеведущий, знаменитый стендап-комик, звезда ветеринарного шоу и всеми любимый футболист отправляются в Африку на ... 9.9 10 8
Торрент: Зарегистрирован [2021-04-06 18:27] · скачан: 186 раз
Статус: √ проверено
Размер: 2.05 GB
Как cкачать? Как скачать Шоу на краю света через торрент | UTorrent

28-11-2019 20:33  

Отключить всю рекламу на сайте

10-04-2021 05:52 Шоу на краю света Скачать торрент  

отличная комедия рейтинг занижен, личная оценка 8 из 10piratbit.org



    Дорогой пользователь! Огромная просьба, поблагодарите релизера, оцените раздачу и оставьте свои комментарий, если Вы скачали Шоу на краю света через торрент бесплатно! Внесите свою лепту в развитие PiratBit!
    Комментировать посты могут только пользователи прошедшие не сложную регистрацию
    Показать сообщения:    

    Шоу на краю света через торрент
    Скачать бесплатно Шоу на краю света
    Шоу на краю света скачать торрент
    Шоу на краю света смотреть онлайн
    Cкачать фильм Шоу на краю света бесплатно
    Шоу на краю света скачать торрент в хорошем качестве
    Шоу на краю света смотреть онлайн бесплатно в хорошем качестве


    Вы не можете начинать темы
    Вы не можете отвечать на сообщения
    Вы не можете редактировать свои сообщения
    Вы не можете удалять свои сообщения
    Вы не можете голосовать в опросах
    Вы не можете прикреплять файлы к сообщениям
    Вы можете скачивать файлы