1 сезон

1 сезон

iTunes

1

КиноПоиск HD

Кинопоиск HD

iTunes

13

1 сезон

RePack

30

Ultimate

ВАЖНО

ИГРА 18+

pack

RePack

MK11
pack

Легкие деньги

RePack

jed

RePack

fifa19

RePack

RDR2

RePack

NEED FOR SPEED™ PAYBACK

4 сезон

9 сезон

Бесстыжие 9 сезон

Все сериалы

все сериалы на PB.wtf

RePack

FAR CRY 5
  
Magnet ссылка

Засуха / The Dry (Роберт Коннолли) [2020, триллер, драма, криминал, детектив, WEB-DL 1080p] MVO [MUZOBOZ] - ExKinoRay piratbit.org

Засуха через торрент piratbit.org

Раздают: 8 [ 0 KB/s ]
Размер: 4.24 GB | Добавлен: 14 д. назад | Торрент скачан:178 раз
Скачать  

06-04-2021 19:01 Засуха Скачать торрент  

Засуха / The Dry
Год выпуска: 2020
Страна: США, Австралия / Arenamedia, Screen Australia
Жанр: Триллер, драма, криминал, детектив
Продолжительность: 01:57:16
Перевод: Любительский многоголосый | MUZOBOZ
Субтитры: Английские

Режиссер: Роберт Коннолли

rating

В ролях: Эрик Бана, Женевьев О`Рейли, Кейр О`Доннелл, Джеймс Фрешвилл, Мэттью Нэйбл, Сэм Корлетт, Джереми Линдсэй Тейлор, Рени Лим, Эдди Бару, Джон Полсон

Описание: Аарон Фалк возвращается в родной измученный засухой город, чтобы расследуя цепочку недавних убийств раскрыть тайну гибели своей школьной подруги.

Без рекламы!

Качество: WEB-DL 1080p
Формат: MKV
Видео кодек: H.264
Аудио кодек: AC3
Видео: MPEG-4 AVC, 4597 Kбит/с, 1912x792
Аудио#1: Русский (AC3, 2 ch, 192 Кбит/с) MVO (MUZOBOZ)
Аудио#2: Английский (AC3, 6 ch, 384 Кбит/с) Original

Релиз от:
Общее
Уникальный идентификатор : 211428138162550459287024724628094906613 (0x9F0F94075C94A7F285BD385B1AC8F0F5)
Полное имя : D:РаздачаZasuha.2020.WEB-DL 1080p.ExKinoRay.mkv
Формат : Matroska
Версия формата : Version 4 / Version 2
Размер файла : 4,24 Гбайт
Продолжительность : 1 ч. 57 м.
Общий поток : 5175 Кбит/сек
Название фильма : The.Dry.2020.WEB-DL 1080p.ExKinoRay & grab777
Дата кодирования : UTC 2021-04-06 17:34:53
Программа кодирования : mkvmerge v7.3.0 ('Nouages') 64bit built on Oct 22 2014 18:53:34
Библиотека кодирования : libebml v1.3.0 + libmatroska v1.4.1

Видео
Идентификатор : 1
Формат : AVC
Формат/Информация : Advanced Video Codec
Профиль формата : High@L4
Настройки формата : CABAC / 5 Ref Frames
Параметр CABAC формата : Да
Параметр RefFrames формата : 5 кадров
Идентификатор кодека : V_MPEG4/ISO/AVC
Продолжительность : 1 ч. 57 м.
Битрейт : 4597 Кбит/сек
Ширина : 1912 пикселей
Высота : 792 пикселя
Соотношение сторон : 2,40:1
Режим частоты кадров : Постоянный
Частота кадров : 24,000 кадра/сек
Цветовое пространство : YUV
Субдискретизация насыщенности : 4:2:0
Битовая глубина : 8 бит
Тип развёртки : Прогрессивная
Бит/(Пиксели*Кадры) : 0.126
Размер потока : 3,77 Гбайт (89%)
Заголовок : FGT
Язык : English
Default : Да
Forced : Нет
Цветовой диапазон : Limited
Основные цвета : BT.709
Характеристики трансфера : BT.709
Коэффициенты матрицы : BT.709

Аудио #1
Идентификатор : 2
Формат : AC-3
Формат/Информация : Audio Coding 3
Параметр Endianness формата : Big
Идентификатор кодека : A_AC3
Продолжительность : 1 ч. 57 м.
Вид битрейта : Постоянный
Битрейт : 192 Кбит/сек
Каналы : 2 канала
Расположение каналов : Front: L R
Частота : 48,0 КГц
Частота кадров : 31,250 кадров/сек (1536 SPF)
Битовая глубина : 16 бит
Метод сжатия : С потерями
Размер потока : 161 Мбайт (4%)
Заголовок : MVO (MUZOBOZ)
Язык : Russian
Default : Да
Forced : Нет

Аудио #2
Идентификатор : 3
Формат : AC-3
Формат/Информация : Audio Coding 3
Параметр Endianness формата : Big
Идентификатор кодека : A_AC3
Продолжительность : 1 ч. 57 м.
Вид битрейта : Постоянный
Битрейт : 384 Кбит/сек
Каналы : 6 каналов
Расположение каналов : Front: L C R, Side: L R, LFE
Частота : 48,0 КГц
Частота кадров : 31,250 кадров/сек (1536 SPF)
Битовая глубина : 16 бит
Метод сжатия : С потерями
Размер потока : 322 Мбайт (7%)
Заголовок : Original
Язык : English
Default : Нет
Forced : Нет

Текст
Идентификатор : 4
Формат : UTF-8
Идентификатор кодека : S_TEXT/UTF8
Идентификатор кодека/Информация : UTF-8 Plain Text
Продолжительность : 1 ч. 50 м.
Битрейт : 47 бит/сек
ElementCount : 1329
Размер потока : 38,2 Кбайт (0%)
Язык : English
Default : Нет
Forced : Нет

piratbit.org



Скачать Засуха через торрент https://a.radikal.ru/a04/2104/d1/38a466799fd5.jpg Скачать фильм Засуха через торрент бесплантно в хорошем качестве Описание: Аарон Фалк возвращается в родной измученный засухой город, чтобы расследуя цепочку недавних убийств раскрыть тайну гибели своей ... 9.9 10 7
Торрент: Зарегистрирован [2021-04-06 19:01] · скачан: 178 раз
Статус: ∑ поглощено
Размер: 4.24 GB
Как cкачать? Как скачать Засуха через торрент | UTorrent

28-11-2019 20:33  

Отключить всю рекламу на сайте

14-04-2021 09:35 Засуха Скачать торрент  

14-04-2021 09:35 Засуха Скачать торрент  

Топик был перенесен из форума Фильмы (WEB-DL 720p, 1080p) в форум Для поглощённых раздач


killermax2013piratbit.org



    Дорогой пользователь! Огромная просьба, поблагодарите релизера, оцените раздачу и оставьте свои комментарий, если Вы скачали Засуха через торрент бесплатно! Внесите свою лепту в развитие PiratBit!
    Комментировать посты могут только пользователи прошедшие не сложную регистрацию
    Показать сообщения:    

    Засуха через торрент
    Скачать бесплатно Засуха
    Засуха скачать торрент
    Засуха смотреть онлайн
    Cкачать фильм Засуха бесплатно
    Засуха скачать торрент в хорошем качестве
    Засуха смотреть онлайн бесплатно в хорошем качестве


    Вы не можете начинать темы
    Вы не можете отвечать на сообщения
    Вы не можете редактировать свои сообщения
    Вы не можете удалять свои сообщения
    Вы не можете голосовать в опросах
    Вы не можете прикреплять файлы к сообщениям
    Вы можете скачивать файлы