1 сезон

3 сезон

iTunes

1

iTunes

DUB Netflix

iTunes

13

1 сезон

RePack

30

Deluxe

pack

Легкие деньги

ВАЖНО

ИГРА 18+

pack

RePack

MK11

RePack

jed

RePack

fifa19

RePack

RDR2

RePack

NEED FOR SPEED™ PAYBACK

4 сезон

9 сезон

Бесстыжие 9 сезон

Все сериалы

все сериалы на PB.wtf

RePack

FAR CRY 5

Anonymous, доброе утро, мы не успеваем до 1 числа собрать деньги на оплату серверов, помогите нам пожалуйста в это трудное время. В качестве благодарности мы отключим Вам всю рекламу на сайте (укажите свой ник в строку Ваше имя)!

×
  
Magnet ссылка

В активном поиске / Сезон: 1 / Серии: 1-10 из 10 (Сарик Андреасян) [2021, Комедия, WEB-DL 720p] piratbit.org

В активном поиске через торрент piratbit.org

Раздают: 3 [ 180 KB/s ]
Размер: 3.97 GB | Добавлен: 1 мес. 3 д. назад | Торрент скачан:121 раз
Скачать  

07-04-2021 23:38 В активном поиске Скачать торрент  

В активном поиске
Год выпуска: 2021
Страна: Россия
Студия: Okko
Жанр: Комедия
Продолжительность: ~ 00:25:00

Режиссер: Сарик Андреасян



В ролях:
Дмитрий Нагиев, Мария Шалаева, Нонна Гришаева, Анна Старшенбаум, Яна Кошкина, Светлана Суханова, Мария Миронова, Мария Кожевникова, Нелли Уварова, Екатерина Климова

Описание:
Андрей (Дмитрий Нагиев) — красивый, умный и состоятельный мужчина. У него в жизни есть все. Он обожает свою работу и готовится окончательно завоевать рекламный рынок. Но однажды на пороге его квартиры появляется девятилетний сын! Андрей ещё десять лет назад вёл абсолютно безбашенную жизнь, и у него было много женщин. Он понятия не имеет, откуда взялся ребёнок. Теперь новоиспечённому отцу предстоит узнать, что значит статус «в активном поиске», найти маму своего сына и при этом не потерять бизнес.

Качество: WEB-DL 720p
Формат: MKV

Видео: 2898 Кбит/сек, 1280*480 (2,667), в 25,000 кадров/сек, AVC
Аудио: 192 Кбит/сек, 44,1 КГц, 16 бит, 2 канала, AC-3

Внимание! Раздача ведётся путём добавления новых серий; при каждом добавлении создаётся новый торрент. Чтобы начать докачку новой серии, пользователям необходимо сделать следующее:
(1) остановить скачивание,
(2) удалить старый торрент у себя из клиента (старые серии удалять не надо),
(3) скачать новый торрент и запустить его у себя в клиенте вместо старого, при этом указать клиенту путь в старую папку куда и должно происходить скачивание новых серий.

Ваш клиент при этом должен произвести хеширование (проверку) старой папки (если не производит сам - помогите ему сделать это), и будет докачивать только те серии которых у вас ещё нет. Старые серии при этом не удаляются, а продолжают раздаваться!

Eсли вы уже удалили старые серии, то предотвратить повторную закачку старых серий можно, отжав галочку в соответствующих местах при запуске нового торрента. По возможности, желательно не удалять старые серии как можно дольше чтобы релизёр не столько продолжал раздавать старые серии, а смог сконцентрироваться на новых.
Общее
Уникальный идентификатор : 236330290873676969856190435633974138986 (0xB1CB8EF3093B5266B1F02F13699AD86A)
Полное имя : G:\В активном поиске.2021.WEB-DL 720p.Files-x\01. В активном поиске.2021.WEB-DL 720p.Files-x.mkv
Формат : Matroska
Версия формата : Version 2
Размер файла : 527 Мбайт
Продолжительность : 23 м. 22 с.
Режим общего битрейта : Переменный
Общий поток : 3153 Кбит/сек
Дата кодирования : UTC 2021-04-07 21:10:14
Программа кодирования : mkvmerge v7.8.0 ('River Man') 32bit built on Apr 3 2015 12:11:22
Библиотека кодирования : libebml v1.3.1 + libmatroska v1.4.2

Видео
Идентификатор : 1
Формат : AVC
Формат/Информация : Advanced Video Codec
Профиль формата : High@L3.1
Настройки формата : CABAC / 1 Ref Frames
Параметр CABAC формата : Да
Параметр RefFrames формата : 1 кадр
Параметр GOP формата : M=1, N=50
Идентификатор кодека : V_MPEG4/ISO/AVC
Продолжительность : 23 м. 22 с.
Вид битрейта : Переменный
Битрейт : 2898 Кбит/сек
Максимальный битрейт : 3000 Кбит/сек
Ширина : 1280 пикселей
Высота : 480 пикселей
Соотношение сторон : 2,667
Режим частоты кадров : Постоянный
Частота кадров : 25,000 кадров/сек
Цветовое пространство : YUV
Субдискретизация насыщенности : 4:2:0
Битовая глубина : 8 бит
Тип развёртки : Прогрессивная
Бит/(Пиксели*Кадры) : 0.189
Размер потока : 485 Мбайт (92%)
Default : Да
Forced : Нет

Аудио
Идентификатор : 2
Формат : AC-3
Формат/Информация : Audio Coding 3
Коммерческое название : Dolby Digital
Идентификатор кодека : A_AC3
Продолжительность : 23 м. 22 с.
Вид битрейта : Постоянный
Битрейт : 192 Кбит/сек
Каналы : 2 канала
ChannelLayout : L R
Частота : 44,1 КГц
Частота кадров : 28,711 кадров/сек (1536 SPF)
Битовая глубина : 16 бит
Метод сжатия : С потерями
Размер потока : 32,1 Мбайт (6%)
ServiceKind/String : Complete Main
Default : Да
Forced : Нет


Скриншоты:
скриншот   скриншот   скриншот   скриншот   скриншот   скриншот   скриншот   
скриншот  
piratbit.org



Скачать В активном поиске через торрент https://pic1.kartinco.top/new/img/2021-04/08/y68ca41xgna7l14a9ve18x6lm.jpg Скачать фильм В активном поиске через торрент бесплантно в хорошем качестве Описание: Андрей (Дмитрий Нагиев) — красивый, умный и состоятельный мужчина. У него в жизни есть все. Он обожает свою работу и готовится ... 9.3 10 13
Торрент: Зарегистрирован [2021-05-14 23:48] · скачан: 121 раз
Статус: √ проверено
Размер: 3.97 GB
Как cкачать? Как скачать В активном поиске через торрент | UTorrent

28-11-2019 20:33  

Отключить всю рекламу на сайте

    Дорогой пользователь! Огромная просьба, поблагодарите релизера, оцените раздачу и оставьте свои комментарий, если Вы скачали В активном поиске через торрент бесплатно! Внесите свою лепту в развитие PiratBit!
    Комментировать посты могут только пользователи прошедшие не сложную регистрацию
    Показать сообщения:    

    В активном поиске через торрент
    Скачать бесплатно В активном поиске
    В активном поиске скачать торрент
    В активном поиске смотреть онлайн
    Cкачать фильм В активном поиске бесплатно
    В активном поиске скачать торрент в хорошем качестве
    В активном поиске смотреть онлайн бесплатно в хорошем качестве


    Вы не можете начинать темы
    Вы не можете отвечать на сообщения
    Вы не можете редактировать свои сообщения
    Вы не можете удалять свои сообщения
    Вы не можете голосовать в опросах
    Вы не можете прикреплять файлы к сообщениям
    Вы можете скачивать файлы