1 сезон

1 сезон

iTunes

1

iTunes

Кинопоиск HD

iTunes

13

1 сезон

RePack

30

Deluxe

ВАЖНО

ИГРА 18+

pack

RePack

MK11
pack

Легкие деньги

RePack

jed

RePack

fifa19

RePack

RDR2

RePack

NEED FOR SPEED™ PAYBACK

4 сезон

9 сезон

Бесстыжие 9 сезон

Все сериалы

все сериалы на PB.wtf

RePack

FAR CRY 5
  
Magnet ссылка

Гадкий Я / Despicable Me (Пьер Коффен, Крис Рено) [2010 г., Комедия, семейный, мультфильм, BDRip 720p / 60 FPS, Дубляж] от R.G. HD-Films piratbit.org

Гадкий Я через торрент piratbit.org

Раздают: 3 [ 0 KB/s ]
Размер: 3.85 GB | Добавлен: 1 мес. 3 д. назад | Торрент скачан:21 раз
Скачать  

12-04-2021 15:30 Гадкий Я Скачать торрент  

Гадкий Я / Despicable Me
Год выпуска: 2010
Страна: США
Жанр: Комедия, семейный, мультфильм
Продолжительность: 01:34:42
Перевод: Дубляж
Субтитры: Русские

Режиссер: Пьер Коффен, Крис Рено

Бюджет: $69 000 000
Премьера в мире: 27 июня 2010

rating

Роли озвучивают: Стив Карелл, Джейсон Сигел, Расселл Брэнд, Джули Эндрюс, Уилл Арнетт, Кристен Уиг, Миранда Косгров, Дэна Гайер, Пьер Коффен, Крис Рено, Джемейн Клемент, Джек МакБрайер, Дэнни МакБрайд, Минди Калинг, Кен Даурио

Описание: Гадкий снаружи, но добрый внутри Грю намерен, тем не менее, закрепить за собой статус главного архизлодея в мире, для чего он решает выкрасть Луну при помощи созданной им армии миньонов. Дело осложняют конкуренты, вставляющие высокотехнические палки в колеса, и семейные обстоятельства в виде трех сироток, о которых Грю вынужден заботиться.

Качество: BDRip 720p / 60 FPS
Формат: MKV
Видео кодек: H.264
Аудио кодек: AC3
Видео: x264, 1280 x 696 ( 1,85:1 ), 5424 kbps, 60,000 fps, ( 0.101 bpp)
Аудио#1: Русский, AC-3, 48.0 KHz, 6 ch, 384 Kbps
Релиз от: Автор рипа: slaventi-69
x264 [info]: frame I:2084 Avg QP:14.81 size:105280
x264 [info]: frame P:78970 Avg QP:16.26 size: 22198
x264 [info]: frame B:259922 Avg QP:19.70 size: 7236
x264 [info]: consecutive B-frames: 2.7% 2.0% 5.5% 20.8% 44.7% 24.2%


Общее
Уникальный идентификатор : 14894256988859902709400017861004199918 (0xB348790D02F590A87668353A7AB87EE)
Полное имя : F:\Despicable.Me.(2010).BDRip.720p.(60 Fps).mkv
Формат : Matroska
Версия формата : Version 4
Размер файла : 3,85 Гбайт
Продолжительность : 1 ч. 34 м.
Общий поток : 5812 Кбит/сек
Название фильма : Гадкий Я / Despicable Me (2010) BDRip 720p (60 Fps)
Дата кодирования : UTC 2021-04-12 14:53:27
Программа кодирования : mkvmerge v52.0.0 ('Secret For The Mad') 64-bit
Библиотека кодирования : libebml v1.4.1 + libmatroska v1.6.2

Видео
Идентификатор : 1
Формат : AVC
Формат/Информация : Advanced Video Codec
Профиль формата : High@L4.1
Настройки формата : CABAC / 8 Ref Frames
Параметр CABAC формата : Да
Параметр RefFrames формата : 8 кадров
Идентификатор кодека : V_MPEG4/ISO/AVC
Продолжительность : 1 ч. 34 м.
Битрейт : 5424 Кбит/сек
Ширина : 1280 пикселей
Высота : 696 пикселей
Соотношение сторон : 1,85:1
Режим частоты кадров : Постоянный
Частота кадров : 60,000 кадров/сек
Цветовое пространство : YUV
Субдискретизация насыщенности : 4:2:0
Битовая глубина : 8 бит
Тип развёртки : Прогрессивная
Бит/(Пиксели*Кадры) : 0.101
Размер потока : 3,59 Гбайт (93%)
Заголовок : slaventi-69 ( R.G. HD-Films | 60 fps )
Библиотека кодирования : x264 core 130 r2273 b3065e6
Настройки программы : cabac=1 / ref=8 / deblock=1:0:0 / analyse=0x3:0x133 / me=umh / subme=9 / psy=1 / psy_rd=1.00:0.00 / mixed_ref=1 / me_range=32 / chroma_me=1 / trellis=2 / 8x8dct=1 / cqm=0 / deadzone=21,11 / fast_pskip=0 / chroma_qp_offset=-2 / threads=12 / lookahead_threads=2 / sliced_threads=0 / nr=0 / decimate=1 / interlaced=0 / bluray_compat=0 / constrained_intra=0 / bframes=5 / b_pyramid=2 / b_adapt=2 / b_bias=0 / direct=2 / weightb=1 / open_gop=0 / weightp=2 / keyint=250 / keyint_min=25 / scenecut=40 / intra_refresh=0 / rc=crf / mbtree=0 / crf=16.7 / qcomp=0.60 / qpmin=0 / qpmax=69 / qpstep=4 / ip_ratio=1.40 / pb_ratio=1.30 / aq=1:1.00
Язык : English
Default : Да
Forced : Нет

Аудио
Идентификатор : 2
Формат : AC-3
Формат/Информация : Audio Coding 3
Коммерческое название : Dolby Digital
Идентификатор кодека : A_AC3
Продолжительность : 1 ч. 34 м.
Вид битрейта : Постоянный
Битрейт : 384 Кбит/сек
Каналы : 6 каналов
Channel layout : L R C LFE Ls Rs
Частота : 48,0 КГц
Частота кадров : 31,250 кадров/сек (1536 SPF)
Битовая глубина : 16 бит
Метод сжатия : С потерями
Размер потока : 260 Мбайт (7%)
Заголовок : Dub
Язык : Russian
ServiceKind/String : Complete Main
Default : Да
Forced : Нет

Текст #1
Идентификатор : 3
Формат : UTF-8
Идентификатор кодека : S_TEXT/UTF8
Идентификатор кодека/Информация : UTF-8 Plain Text
Продолжительность : 1 ч. 10 м.
Битрейт : 2 бит/сек
ElementCount : 34
Размер потока : 1,28 Кбайт (0%)
Заголовок : Forced
Язык : Russian
Default : Да
Forced : Нет

Текст #2
Идентификатор : 4
Формат : UTF-8
Идентификатор кодека : S_TEXT/UTF8
Идентификатор кодека/Информация : UTF-8 Plain Text
Продолжительность : 1 ч. 28 м.
Битрейт : 68 бит/сек
ElementCount : 973
Размер потока : 44,7 Кбайт (0%)
Язык : Russian
Default : Нет
Forced : Нет

Меню
00:00:00.000 : en:Global Panic
00:03:22.411 : en:Meet Gru
00:06:31.891 : en:Crime Of The Century
00:12:05.099 : en:Home for Girls
00:13:50.496 : en:Bank of Evil
00:18:38.826 : en:Shrink Ray Theft
00:23:06.844 : en:Vector's Fortress
00:25:56.221 : en:Adoption
00:30:40.839 : en:Setting Some Rules
00:34:48.753 : en:Top Secret
00:39:43.047 : en:Pinky Promise
00:43:38.366 : en:Cookiebots
00:48:19.188 : en:Fun Land
00:52:52.502 : en:Cotton Candy?
00:56:46.111 : en:New Funding
01:02:08.016 : en:Sleepy Kittens
01:09:23.868 : en:To the Moon
01:16:25.456 : en:Rescue
01:22:41.581 : en:One Big Unicorn
01:27:35.375 : en:End Titles

Просьба к переливающим на другие сайты, в оформлении указывайте пожалуйста авторство группы R.G. HD-Films piratbit.org



Скачать Гадкий Я через торрент https://a.radikal.ru/a29/2012/ea/4cf302bfa1e9.jpg Скачать фильм Гадкий Я через торрент бесплантно в хорошем качестве Описание: Гадкий снаружи, но добрый внутри Грю намерен, тем не менее, закрепить за собой статус главного архизлодея в мире, для чего он ... 10 10 6
Info! Золотая раздача, скачанное не засчитывается.
Торрент: Зарегистрирован [2021-04-12 15:30] · скачан: 21 раз
Статус: √ проверено
Размер: 3.85 GB
Как cкачать? Как скачать Гадкий Я через торрент | UTorrent

% Раздел Тема Автор DL S | L
Мультфильмы (48-60 fps) [ 3.2 GB ] Гадкий я 3 / Despicable Me 3 [2017 Мультфильм BDRip 720p / 60 FPS ] от R.G. HD-Films slaventi-69 Скачать
5 | 0
Мультфильмы (48-60 fps) [ 4 GB ] Гадкий я 2 / Despicable Me 2 [2013 мультфильм BDRip 720p / 60 FPS ] от R.G. HD-Films slaventi-69 Скачать
5 | 0
Иностранные мультфильмы [ 2.9 GB ] Гадкий я: Дилогия / Despicable Me: Dilogy [2010 2013 мультфильм HDRip-AVC] DUB [] от R.G. PiratFilms Demonessa Скачать
1 | 0

28-11-2019 20:33  

Отключить всю рекламу на сайте

    Дорогой пользователь! Огромная просьба, поблагодарите релизера, оцените раздачу и оставьте свои комментарий, если Вы скачали Гадкий Я через торрент бесплатно! Внесите свою лепту в развитие PiratBit!
    Комментировать посты могут только пользователи прошедшие не сложную регистрацию
    Показать сообщения:    

    Гадкий Я через торрент
    Скачать бесплатно Гадкий Я
    Гадкий Я скачать торрент
    Гадкий Я смотреть онлайн
    Cкачать фильм Гадкий Я бесплатно
    Гадкий Я скачать торрент в хорошем качестве
    Гадкий Я смотреть онлайн бесплатно в хорошем качестве


    Вы не можете начинать темы
    Вы не можете отвечать на сообщения
    Вы не можете редактировать свои сообщения
    Вы не можете удалять свои сообщения
    Вы не можете голосовать в опросах
    Вы не можете прикреплять файлы к сообщениям
    Вы можете скачивать файлы