1 сезон

3 сезон

iTunes

1

iTunes

DUB Netflix

iTunes

13

1 сезон

RePack

30

Deluxe

pack

Легкие деньги

ВАЖНО

ИГРА 18+

pack

RePack

MK11

RePack

jed

RePack

fifa19

RePack

RDR2

RePack

NEED FOR SPEED™ PAYBACK

4 сезон

9 сезон

Бесстыжие 9 сезон

Все сериалы

все сериалы на PB.wtf

RePack

FAR CRY 5

Anonymous, доброй ночи, мы не успеваем до 1 числа собрать деньги на оплату серверов, помогите нам пожалуйста в это трудное время. В качестве благодарности мы отключим Вам всю рекламу на сайте (укажите свой ник в строку Ваше имя)!

×
  
Magnet ссылка

Милиционер с Рублёвки / Сезон: 1 / Серии: 1-16 из 16 + Фильм о фильме (Полина Ануфриева) [2021, Комедия, WEBRip 1080p] piratbit.org

Милиционер с Рублёвки через торрент piratbit.org

Раздают: 8 [ 346 KB/s ] Качают: 1 [ 0 KB/s ]
Размер: 14.12 GB | Добавлен: 1 мес. 18 д. назад | Торрент скачан:150 раз
Скачать  

12-04-2021 18:40 Милиционер с Рублёвки Скачать торрент  

Милиционер с Рублёвки
Год выпуска: 2021
Страна: Россия
Выпущено: Production, LEGIO FELIX по заказу телеканала ТНТ
Жанр: Комедия
Продолжительность: ~ 00:25:00
Перевод: Не требуется
Субтитры: отсутствуют

Режиссер: Полина Ануфриева



В ролях: Артём Сучков, Ольга Виниченко, Юрий Грубник, Артём Жигулин, Ирина Князьниделина, Дмитрий Ячевский, Ола Кейру, Владимир Гарцунов, Ольга Шеховцева, Сергей Ефремов, Юлия Майборода, Валентина Ляпина

Описание: Приквел сериала «Полицейский с Рублевки». Сюжет развивается в 1994 году, когда выпускник высшей школы милиции Володя Яковлев получает назначение на Рублёвку. Оперативник всегда работает в связке со следователем, и именно так Яковлев знакомится с Гудковой – уже тогда очень странной, но не такой потерянной для мира, какой мы её знаем по «Полицейскому с Рублёвки». Вдвоем они расследуют важные, но довольное сомнительные дела – то ищут банду пиратов, снимающих вторые части к культовым боевикам, то выясняют, кто украл чемодан с билетами «МММ». Помогает им в этом брат Яковлева, который ещё подростком знал, что ему предстоит работать в службе безопасности, а не в какой-то там милиции.

Качество: WEBRip 1080p
Формат: MKV

Видео: MPEG4 AVC Video, H264, 2,40:1, 1920x800, 4500 kbps, 0.116 bit/pixel
Аудио: AC3 Dolby Digital, 48 kHz, 2/0 (L,R) ch, 192 kbps
скриншот  скриншот  скриншот  скриншот  

Общее
Уникальный идентификатор : 233159428328767903323007738561107909705 (0xAF68DF5B136FFCED8C2B56364274DC49)
Полное имя : D:\Сериалы\Militsioner.s.rublevki.2021.WEB-DL.(1080p).Getty\Militsioner.s.rublevki.e01.2021.WEB-DL.(1080p).Getty.mkv
Формат : Matroska
Версия формата : Version 4
Размер файла : 920 Мбайт
Продолжительность : 27 м. 41 с.
Режим общего битрейта : Переменный
Общий поток : 4 649 Кбит/сек
Название фильма : Militsioner.s.rublevki.e01.2021.WEB-DL.(1080p).Getty
Дата кодирования : UTC 2021-04-12 15:30:26
Программа кодирования : mkvmerge v7.8.0 ('River Man') 32bit built on Mar 27 2015 16:18:02
Библиотека кодирования : libebml v1.3.1 + libmatroska v1.4.2

Видео
Идентификатор : 1
Формат : AVC
Формат/Информация : Advanced Video Codec
Профиль формата : High@L4
Настройки формата : CABAC / 1 Ref Frames
Параметр CABAC формата : Да
Параметр RefFrames формата : 1 кадр
Параметр GOP формата : M=1, N=50
Идентификатор кодека : V_MPEG4/ISO/AVC
Продолжительность : 27 м. 41 с.
Вид битрейта : Переменный
Битрейт : 4 455 Кбит/сек
Максимальный битрейт : 4 500 Кбит/сек
Ширина : 1 920 пикселей
Высота : 800 пикселей
Соотношение сторон : 2,40:1
Режим частоты кадров : Постоянный
Частота кадров : 25,000 кадров/сек
Цветовое пространство : YUV
Субдискретизация насыщенности : 4:2:0
Битовая глубина : 8 бит
Тип развёртки : Прогрессивная
Бит/(Пиксели*Кадры) : 0.116
Размер потока : 882 Мбайт (96%)
Default : Да
Forced : Нет

Аудио
Идентификатор : 2
Формат : AC-3
Формат/Информация : Audio Coding 3
Коммерческое название : Dolby Digital
Идентификатор кодека : A_AC3
Продолжительность : 27 м. 41 с.
Вид битрейта : Постоянный
Битрейт : 192 Кбит/сек
Каналы : 2 канала
Channel layout : L R
Частота : 48,0 КГц
Частота кадров : 31,250 кадров/сек (1536 SPF)
Метод сжатия : С потерями
Размер потока : 38,0 Мбайт (4%)
Service kind : Complete Main
Default : Да
Forced : Нет

Внимание! Раздача ведётся путём добавления новых серий; при каждом добавлении создаётся новый торрент.
Чтобы начать докачку новой серии, пользователям необходимо сделать следующее:
1. Остановить скачивание;
2. Удалить старый торрент у себя из клиента (старые серии удалять не надо);
3. Скачать новый торрент и запустить его у себя в клиенте вместо старого, при этом указать клиенту путь в старую папку куда и должно происходить скачивание новых серий. Ваш клиент при этом должен произвести хеширование (проверку) старой папки и будет докачивать только те серии, которых у вас ещё нет. Старые серии при этом не удаляются, а продолжают раздаваться! Eсли вы уже удалили старые серии, то предотвратить повторную закачку старых серий можно, отжав галочку в соответствующих местах при запуске нового торрента.

piratbit.org



Скачать Милиционер с Рублёвки через торрент https://i114.fastpic.ru/big/2021/0413/99/c9f87f836cb3f4defb3cd14993c64499.jpg Скачать фильм Милиционер с Рублёвки через торрент бесплантно в хорошем качестве Описание: Приквел сериала «Полицейский с Рублевки». Сюжет развивается в 1994 году, когда выпускник высшей школы милиции Володя Яковлев ... 9.3 10 25
Info! Золотая раздача, скачанное не засчитывается.
Торрент: Зарегистрирован [2021-05-02 05:07] · скачан: 150 раз
Статус: √ проверено
Размер: 14.12 GB
Как cкачать? Как скачать Милиционер с Рублёвки через торрент | UTorrent

% Раздел Тема Автор DL S | L
TNT serials [ 5.49 GB ] Милиционер с Рублёвки / Сезон: 1 / Серии: 1-16 из 16 + Фильм о фильме [2021 WEBRip-AVC] bober100 Скачать
9 | 2
TNT serials [ 9.6 GB ] Милиционер с Рублёвки / Сезон: 1 / Серии: 1-16 из 16 + Фильм о фильме [2021 WEBRip 720p] GEKADOL Скачать
5 | 0
TNT serials [ 5.91 GB ] Милиционер с Рублёвки / Сезон: 1 / Серии: 1-16 из 16 + Фильм о фильме [2021 WEBRip] bober100 Скачать
2 | 0


Последний раз редактировалось: bober100 (2021-05-02 05:07), всего редактировалось 6 раз(а)

28-11-2019 20:33  

Отключить всю рекламу на сайте

13-04-2021 01:13 Милиционер с Рублёвки Скачать торрент  

Какая же блевотина.piratbit.org



16-04-2021 20:13 Милиционер с Рублёвки Скачать торрент  

Дрочь несусветная, как такое можно было снять?!piratbit.org



18-04-2021 09:03 Милиционер с Рублёвки Скачать торрент  

Лучше бы с боруновым сняли бы либо сиквел, либо приквелpiratbit.org



01-05-2021 19:13 Милиционер с Рублёвки Скачать торрент  

Вас, "диванных херспектов" забыли спросить...piratbit.org



    Дорогой пользователь! Огромная просьба, поблагодарите релизера, оцените раздачу и оставьте свои комментарий, если Вы скачали Милиционер с Рублёвки через торрент бесплатно! Внесите свою лепту в развитие PiratBit!
    Комментировать посты могут только пользователи прошедшие не сложную регистрацию
    Показать сообщения:    

    Милиционер с Рублёвки через торрент
    Скачать бесплатно Милиционер с Рублёвки
    Милиционер с Рублёвки скачать торрент
    Милиционер с Рублёвки смотреть онлайн
    Cкачать фильм Милиционер с Рублёвки бесплатно
    Милиционер с Рублёвки скачать торрент в хорошем качестве
    Милиционер с Рублёвки смотреть онлайн бесплатно в хорошем качестве


    Вы не можете начинать темы
    Вы не можете отвечать на сообщения
    Вы не можете редактировать свои сообщения
    Вы не можете удалять свои сообщения
    Вы не можете голосовать в опросах
    Вы не можете прикреплять файлы к сообщениям
    Вы можете скачивать файлы