1 сезон

3 сезон

iTunes

1

iTunes

DUB Netflix

iTunes

13

1 сезон

RePack

30

Deluxe

pack

Легкие деньги

ВАЖНО

ИГРА 18+

pack

RePack

MK11

RePack

jed

RePack

fifa19

RePack

RDR2

RePack

NEED FOR SPEED™ PAYBACK

4 сезон

9 сезон

Бесстыжие 9 сезон

Все сериалы

все сериалы на PB.wtf

RePack

FAR CRY 5

Anonymous, доброй ночи, мы не успеваем до 1 числа собрать деньги на оплату серверов, помогите нам пожалуйста в это трудное время. В качестве благодарности мы отключим Вам всю рекламу на сайте (укажите свой ник в строку Ваше имя)!

×
  
Magnet ссылка

Жуки / Сезон: 2 / Серии: 1-16 из 16 (Константин Колесов) [2021, комедия, HDTV 1080i] piratbit.org

Жуки через торрент piratbit.org

Раздают: 4 [ 10 KB/s ] Качают: 3 [ 0 KB/s ]
Размер: 13.82 GB | Добавлен: 1 мес. 17 д. назад | Торрент скачан:127 раз
Скачать  

12-04-2021 19:48 Жуки Скачать торрент  

Жуки
Год выпуска: 2021
Страна: Россия
Жанр: комедия
Продолжительность: ~ 00:25:00 (Серия)
Перевод: Не требуется
Субтитры: отсутствуют

Режиссер: Константин Колесов



В ролях: Вячеслав Чепурченко, Вадим Дубровин, Павел Комаров (II), Елизавета Гончаренко, Владимир Епифанцев, Максим Лагашкин, Екатерина Стулова, Виктор Бычков, Игорь Верник, Анатолий Журавлёв, Карина Мишулина, Дарья Алыпова, Валерий Новиков

Описание: За этот год мир полностью изменился, а в Жуках все так же солнечно и душевно. Никита, Дэн и Артемий продолжают работать над своим приложением для знакомств TWIN под присмотром инвестора, который всё-таки добрался до Жуков в трезвом уме и теперь живёт тут, несмотря на неодобрение участкового Маслова. У Маслова, кроме инвестора, появляется ещё одна проблема: его дочь, которая внезапно приехала в Жуки и кое-что скрывает от отца. Инвестору пришлось постараться, чтобы вернуть ребят к работе: после того, как Аня бросила Никиту, он ушёл в запой и хандру, Артемий пал духом из-за мыслей о страшной мести Толика за его роман с Иркой, а Денис боится родителей доярки Дины, которую он хотел увезти в Москву. Все их мысли совсем не о карьере, но возможность продать приложение за огромные деньги заставляет их снова загореться своей идеей. Совмещая работу в деревенской школе, на почте и ферме с попытками решить классические для стартапа проблемы типа настройки серверов или поиска идей для продвижения, трио регулярно попадает в самые безумные ситуации, какие только могут случиться в российской глуши.

Качество: HDTV 1080i
Формат: TS

Видео: 1920х1080 (16:9), 25 fps, AVC MPEG-4 (x264), High@L4.0 ~ 6700 kbps , 0.129 bit/pixel
Аудио: 48 kHz, MPEG Layer 2, 2 ch, ~ 192 kbps avg
скриншот  скриншот  скриншот  скриншот  

Общее
Идентификатор : 1 (0x1)
Полное имя : E:\Zhuki.S02.2021.HDTV.(1080i).ExKinoRay\Zhuki.S02.E01.2021.HDTV.(1080i).ExKinoRay.ts
Формат : MPEG-TS
Размер файла : 907 Мбайт
Продолжительность : 24 м. 26 с.
Режим общего битрейта : Переменный
Общий поток : 5 189 Кбит/сек

Видео
Идентификатор : 100 (0x64)
Идентификатор меню : 1 (0x1)
Формат : AVC
Формат/Информация : Advanced Video Codec
Профиль формата : High@L4
Настройки формата : CABAC / 4 Ref Frames
Параметр CABAC формата : Да
Параметр RefFrames формата : 4 кадра
Идентификатор кодека : 27
Продолжительность : 24 м. 26 с.
Битрейт : 4 739 Кбит/сек
Ширина : 1 920 пикселей
Высота : 1 080 пикселей
Соотношение сторон : 16:9
Частота кадров : 25,000 кадров/сек
Стандарт вещания : Component
Цветовое пространство : YUV
Субдискретизация насыщенности : 4:2:0
Битовая глубина : 8 бит
Тип развёртки : Чересстрочная
Метод сохранения типа развёртки : Раздельные поля
Порядок развёртки : Верхнее поле первое
Бит/(Пиксели*Кадры) : 0.091
Размер потока : 828 Мбайт (91%)
Цветовой диапазон : Limited
Основные цвета : BT.709
Характеристики трансфера : BT.709
Коэффициенты матрицы : BT.709

Аудио
Идентификатор : 200 (0xC8)
Идентификатор меню : 1 (0x1)
Формат : MPEG Audio
Версия формата : Version 1
Профиль формата : Layer 2
Идентификатор кодека : 3
Продолжительность : 24 м. 26 с.
Вид битрейта : Постоянный
Битрейт : 192 Кбит/сек
Каналы : 2 канала
Частота : 48,0 КГц
Частота кадров : 41,667 кадра/сек (1152 SPF)
Метод сжатия : С потерями
Размер потока : 33,6 Мбайт (4%)
Язык : Russian

Внимание! Раздача ведётся путём добавления новых серий; при каждом добавлении создаётся новый торрент.
Чтобы начать докачку новой серии, пользователям необходимо сделать следующее:
1. Остановить скачивание;
2. Удалить старый торрент у себя из клиента (старые серии удалять не надо);
3. Скачать новый торрент и запустить его у себя в клиенте вместо старого, при этом указать клиенту путь в старую папку куда и должно происходить скачивание новых серий. Ваш клиент при этом должен произвести хеширование (проверку) старой папки и будет докачивать только те серии, которых у вас ещё нет. Старые серии при этом не удаляются, а продолжают раздаваться! Eсли вы уже удалили старые серии, то предотвратить повторную закачку старых серий можно, отжав галочку в соответствующих местах при запуске нового торрента.

piratbit.org



Скачать Жуки через торрент https://b.radikal.ru/b42/2104/ce/441fa50c9ce7.jpg Скачать фильм Жуки через торрент бесплантно в хорошем качестве Описание: За этот год мир полностью изменился, а в Жуках все так же солнечно и душевно. Никита, Дэн и Артемий продолжают работать над своим ... 10 10 24
Торрент: Зарегистрирован [2021-05-02 13:20] · скачан: 127 раз
Статус: √ проверено
Размер: 13.82 GB
Как cкачать? Как скачать Жуки через торрент | UTorrent

% Раздел Тема Автор DL S | L
TNT serials [ 8.77 GB ] Жуки / Сезон: 2 / Серии: 1-16 из 16 + Фильм о фильме [2021 WEBRip 720p] GEKADOL Скачать
12 | 3
TNT serials [ 4.95 GB ] Жуки / Сезон: 2 / Серии: 1-16 из 16 + Фильм о фильме [2021 WEBRip ] bober100 Скачать
6 | 1
TNT serials [ 5.44 GB ] Жуки / Сезон: 2 / Серии: 1-16 из 16 + Фильм о фильме [2021 SATRip] bober100 Скачать
1 | 2

28-11-2019 20:33  

Отключить всю рекламу на сайте

    Дорогой пользователь! Огромная просьба, поблагодарите релизера, оцените раздачу и оставьте свои комментарий, если Вы скачали Жуки через торрент бесплатно! Внесите свою лепту в развитие PiratBit!
    Комментировать посты могут только пользователи прошедшие не сложную регистрацию
    Показать сообщения:    

    Жуки через торрент
    Скачать бесплатно Жуки
    Жуки скачать торрент
    Жуки смотреть онлайн
    Cкачать фильм Жуки бесплатно
    Жуки скачать торрент в хорошем качестве
    Жуки смотреть онлайн бесплатно в хорошем качестве


    Вы не можете начинать темы
    Вы не можете отвечать на сообщения
    Вы не можете редактировать свои сообщения
    Вы не можете удалять свои сообщения
    Вы не можете голосовать в опросах
    Вы не можете прикреплять файлы к сообщениям
    Вы можете скачивать файлы