1 сезон

3 сезон

iTunes

1

iTunes

DUB Netflix

iTunes

13

1 сезон

RePack

30

Deluxe

pack

Легкие деньги

ВАЖНО

ИГРА 18+

pack

RePack

MK11

RePack

jed

RePack

fifa19

RePack

RDR2

RePack

NEED FOR SPEED™ PAYBACK

4 сезон

9 сезон

Бесстыжие 9 сезон

Все сериалы

все сериалы на PB.wtf

RePack

FAR CRY 5

Anonymous, добрый день, мы не успеваем до 1 числа собрать деньги на оплату серверов, помогите нам пожалуйста в это трудное время. В качестве благодарности мы отключим Вам всю рекламу на сайте (укажите свой ник в строку Ваше имя)!

×
  
Magnet ссылка

Милиционер с Рублёвки / Сезон: 1 / Серии: 1-16 из 16 + Фильм о фильме (Полина Ануфриева) [2021, Комедия, WEBRip 720p] piratbit.org

Милиционер с Рублёвки через торрент piratbit.org

Раздают: 2 [ 0.4 KB/s ]
Размер: 9.6 GB | Добавлен: 1 мес. 20 д. назад | Торрент скачан:62 раза
Скачать  

12-04-2021 23:32 Милиционер с Рублёвки Скачать торрент  

Милиционер с Рублёвки
Год выпуска: 2021
Страна: Россия
Студия: 1-2-3 Production, LEGIO FELIX по заказу телеканала ТНТ
Жанр: Комедия
Продолжительность: ~ 00:25:00

Режиссер: Полина Ануфриева



В ролях:
Артём Сучков, Ольга Виниченко, Юрий Грубник, Артём Жигулин, Ирина Князьниделина, Дмитрий Ячевский, Ола Кейру, Владимир Гарцунов, Ольга Шеховцева, Сергей Ефремов, Юлия Майборода, Валентина Ляпина

Описание:
Приквел сериала «Полицейский с Рублевки». Сюжет развивается в 1994 году, когда выпускник высшей школы милиции Володя Яковлев получает назначение на Рублёвку. Оперативник всегда работает в связке со следователем, и именно так Яковлев знакомится с Гудковой – уже тогда очень странной, но не такой потерянной для мира, какой мы её знаем по «Полицейскому с Рублёвки». Вдвоем они расследуют важные, но довольное сомнительные дела – то ищут банду пиратов, снимающих вторые части к культовым боевикам, то выясняют, кто украл чемодан с билетами «МММ». Помогает им в этом брат Яковлева, который ещё подростком знал, что ему предстоит работать в службе безопасности, а не в какой-то там милиции.

Качество: WEBRip 720p
Формат: MKV

Видео: 2910 Кбит/сек, 1280*539 (2,40:1), в 25,000 кадров/сек, AVC
Аудио: 192 Кбит/сек, 44,1 КГц, 16 бит, 2 канала, AC-3

Внимание! Раздача ведётся путём добавления новых серий; при каждом добавлении создаётся новый торрент. Чтобы начать докачку новой серии, пользователям необходимо сделать следующее:
(1) остановить скачивание,
(2) удалить старый торрент у себя из клиента (старые серии удалять не надо),
(3) скачать новый торрент и запустить его у себя в клиенте вместо старого, при этом указать клиенту путь в старую папку куда и должно происходить скачивание новых серий.

Ваш клиент при этом должен произвести хеширование (проверку) старой папки (если не производит сам - помогите ему сделать это), и будет докачивать только те серии которых у вас ещё нет. Старые серии при этом не удаляются, а продолжают раздаваться!

Eсли вы уже удалили старые серии, то предотвратить повторную закачку старых серий можно, отжав галочку в соответствующих местах при запуске нового торрента. По возможности, желательно не удалять старые серии как можно дольше чтобы релизёр не столько продолжал раздавать старые серии, а смог сконцентрироваться на новых.
Общее
Уникальный идентификатор : 248857673872828849109135428316379177218 (0xBB383E9E1EC82888856D2BE2E4836102)
Полное имя : G:\Милиционер с Рублёвки2021.WEB-DL 720p.Files-x\01. Милиционер с Рублёвки2021.WEB-DL 720p.Files-x.mkv
Формат : Matroska
Версия формата : Version 2
Размер файла : 627 Мбайт
Продолжительность : 27 м. 41 с.
Режим общего битрейта : Переменный
Общий поток : 3165 Кбит/сек
Дата кодирования : UTC 2021-04-12 18:36:32
Программа кодирования : mkvmerge v7.8.0 ('River Man') 32bit built on Apr 3 2015 12:11:22
Библиотека кодирования : libebml v1.3.1 + libmatroska v1.4.2

Видео
Идентификатор : 1
Формат : AVC
Формат/Информация : Advanced Video Codec
Профиль формата : High@L3.1
Настройки формата : CABAC / 1 Ref Frames
Параметр CABAC формата : Да
Параметр RefFrames формата : 1 кадр
Параметр GOP формата : M=1, N=50
Идентификатор кодека : V_MPEG4/ISO/AVC
Продолжительность : 27 м. 41 с.
Вид битрейта : Переменный
Битрейт : 2910 Кбит/сек
Максимальный битрейт : 3000 Кбит/сек
Ширина : 1280 пикселей
Высота : 539 пикселей
Соотношение сторон : 2,40:1
Соотношение сторон в оригинале : 2,40:1
Режим частоты кадров : Постоянный
Частота кадров : 25,000 кадров/сек
Цветовое пространство : YUV
Субдискретизация насыщенности : 4:2:0
Битовая глубина : 8 бит
Тип развёртки : Прогрессивная
Бит/(Пиксели*Кадры) : 0.172
Размер потока : 576 Мбайт (92%)
Default : Да
Forced : Нет

Аудио
Идентификатор : 2
Формат : AC-3
Формат/Информация : Audio Coding 3
Коммерческое название : Dolby Digital
Идентификатор кодека : A_AC3
Продолжительность : 27 м. 41 с.
Вид битрейта : Постоянный
Битрейт : 192 Кбит/сек
Каналы : 2 канала
ChannelLayout : L R
Частота : 44,1 КГц
Частота кадров : 28,711 кадров/сек (1536 SPF)
Битовая глубина : 16 бит
Метод сжатия : С потерями
Размер потока : 38,0 Мбайт (6%)
ServiceKind/String : Complete Main
Default : Да
Forced : Нет


Скриншоты:
скриншот   скриншот   скриншот   скриншот   скриншот   скриншот   скриншот   
скриншот  
piratbit.org



Скачать Милиционер с Рублёвки через торрент https://pic1.kartinco.top/new/img/2021-04/13/gh1o2n9s94jy7z9r6lz1u98j0.jpg Скачать фильм Милиционер с Рублёвки через торрент бесплантно в хорошем качестве Описание: Приквел сериала «Полицейский с Рублевки». Сюжет развивается в 1994 году, когда выпускник высшей школы милиции Володя Яковлев ... 9.6 10 23
Торрент: Зарегистрирован [2021-05-01 23:40] · скачан: 62 раз
Статус: √ проверено
Размер: 9.6 GB
Как cкачать? Как скачать Милиционер с Рублёвки через торрент | UTorrent

% Раздел Тема Автор DL S | L
TNT serials [ 5.49 GB ] Милиционер с Рублёвки / Сезон: 1 / Серии: 1-16 из 16 + Фильм о фильме [2021 WEBRip-AVC] bober100 Скачать
7 | 1
TNT serials [ 14.12 GB ] Милиционер с Рублёвки / Сезон: 1 / Серии: 1-16 из 16 + Фильм о фильме [2021 WEBRip 1080p] bober100 Скачать
9 | 0
TNT serials [ 5.91 GB ] Милиционер с Рублёвки / Сезон: 1 / Серии: 1-16 из 16 + Фильм о фильме [2021 WEBRip] bober100 Скачать
1 | 0


Последний раз редактировалось: GEKADOL (2021-05-01 23:40), всего редактировалось 1 раз

28-11-2019 20:33  

Отключить всю рекламу на сайте

01-05-2021 17:31 Милиционер с Рублёвки Скачать торрент  

Что за херня! Серий 16! Плюс о фильмы 17-я!piratbit.org



    Дорогой пользователь! Огромная просьба, поблагодарите релизера, оцените раздачу и оставьте свои комментарий, если Вы скачали Милиционер с Рублёвки через торрент бесплатно! Внесите свою лепту в развитие PiratBit!
    Комментировать посты могут только пользователи прошедшие не сложную регистрацию
    Показать сообщения:    

    Милиционер с Рублёвки через торрент
    Скачать бесплатно Милиционер с Рублёвки
    Милиционер с Рублёвки скачать торрент
    Милиционер с Рублёвки смотреть онлайн
    Cкачать фильм Милиционер с Рублёвки бесплатно
    Милиционер с Рублёвки скачать торрент в хорошем качестве
    Милиционер с Рублёвки смотреть онлайн бесплатно в хорошем качестве


    Вы не можете начинать темы
    Вы не можете отвечать на сообщения
    Вы не можете редактировать свои сообщения
    Вы не можете удалять свои сообщения
    Вы не можете голосовать в опросах
    Вы не можете прикреплять файлы к сообщениям
    Вы можете скачивать файлы