1 сезон

1 сезон

iTunes

1

iTunes

Кинопоиск HD

iTunes

13

1 сезон

RePack

30

Deluxe

ВАЖНО

ИГРА 18+

pack

RePack

MK11
pack

Легкие деньги

RePack

jed

RePack

fifa19

RePack

RDR2

RePack

NEED FOR SPEED™ PAYBACK

4 сезон

9 сезон

Бесстыжие 9 сезон

Все сериалы

все сериалы на PB.wtf

RePack

FAR CRY 5
  
Magnet ссылка

Гадкий я 2 / Despicable Me 2 (Пьер Коффан, Крис Рено) [2013 г., мультфильм, фантастика, комедия, приключения, семейный, BDRip 720p / 60 FPS, Дубляж] от R.G. HD-Films piratbit.org

Гадкий я 2 через торрент piratbit.org

Раздают: 2 [ 0 KB/s ]
Размер: 4 GB | Добавлен: 1 мес. назад | Торрент скачан:21 раз
Скачать  

13-04-2021 16:30 Гадкий я 2 Скачать торрент  

Гадкий я 2 / Despicable Me 2
Год выпуска: 2013
Страна: США, Франция, Япония
Жанр: мультфильм, фантастика, комедия, приключения, семейный
Продолжительность: 01:37:52
Перевод: Дубляж
Субтитры: Русские, английские

Режиссер: Пьер Коффан, Крис Рено

Бюджет: $76 000 000
Премьера в мире: 16 июня 2013

rating

Роли озвучивают: Стив Карелл, Кен Жонг, Кристен Уиг, Миранда Косгров, Мойзес Ариас, Бенджамин Брэтт, Стив Куган, Расселл Брэнд, Элси Фишер, Дэна Гайер

Описание: В то время как Грю, бывший суперзлодей, приспосабливается к семейной жизни и пытается честным трудом зарабатывать в сфере бизнеса, тайные лаборатории Арктики оказываются украденными. Анти-Злодейская лига решает, что она нуждается в помощи Грю и его новобранцев в расследовании.

Качество: BDRip 720p / 60 FPS
Формат: MKV
Видео кодек: H.264
Аудио кодек: AC3
Видео: x264, 1280 x 688 ( 1,85:1 ), 5457 kbps, 60,000 fps, ( 0.103 bpp)
Аудио#1: Русский, AC-3, 48.0 KHz, 6 ch, 384 Kbps
Релиз от: Автор рипа: slaventi-69
x264 [info]: frame I:2114 Avg QP:15.93 size:108845
x264 [info]: frame P:81797 Avg QP:17.19 size: 23205
x264 [info]: frame B:268460 Avg QP:20.36 size: 6996
x264 [info]: consecutive B-frames: 2.7% 1.9% 6.0% 21.4% 45.0% 23.0%


Общее
Уникальный идентификатор : 147128773327156349230023172045378352405 (0x6EAFF894F984BFA3F5AD4D20D576F515)
Полное имя : F:\Despicable.Me.2.(2013).BDRip.720p.(60 Fps).mkv
Формат : Matroska
Версия формата : Version 4
Размер файла : 4,00 Гбайт
Продолжительность : 1 ч. 37 м.
Общий поток : 5842 Кбит/сек
Название фильма : Гадкий я 2 / Despicable Me 2 (2013) BDRip 720p (60 Fps)
Дата кодирования : UTC 2021-04-13 16:05:45
Программа кодирования : mkvmerge v52.0.0 ('Secret For The Mad') 64-bit
Библиотека кодирования : libebml v1.4.1 + libmatroska v1.6.2

Видео
Идентификатор : 1
Формат : AVC
Формат/Информация : Advanced Video Codec
Профиль формата : High@L4.1
Настройки формата : CABAC / 9 Ref Frames
Параметр CABAC формата : Да
Параметр RefFrames формата : 9 кадров
Идентификатор кодека : V_MPEG4/ISO/AVC
Продолжительность : 1 ч. 37 м.
Битрейт : 5457 Кбит/сек
Ширина : 1280 пикселей
Высота : 688 пикселей
Соотношение сторон : 1,85:1
Режим частоты кадров : Постоянный
Частота кадров : 60,000 кадров/сек
Цветовое пространство : YUV
Субдискретизация насыщенности : 4:2:0
Битовая глубина : 8 бит
Тип развёртки : Прогрессивная
Бит/(Пиксели*Кадры) : 0.103
Размер потока : 3,73 Гбайт (93%)
Заголовок : slaventi-69 ( R.G. HD-Films | 60 fps )
Библиотека кодирования : x264 core 130 r2273 b3065e6
Настройки программы : cabac=1 / ref=9 / deblock=1:0:0 / analyse=0x3:0x133 / me=umh / subme=9 / psy=1 / psy_rd=1.00:0.00 / mixed_ref=1 / me_range=32 / chroma_me=1 / trellis=2 / 8x8dct=1 / cqm=0 / deadzone=21,11 / fast_pskip=0 / chroma_qp_offset=-2 / threads=12 / lookahead_threads=2 / sliced_threads=0 / nr=0 / decimate=1 / interlaced=0 / bluray_compat=0 / constrained_intra=0 / bframes=5 / b_pyramid=2 / b_adapt=2 / b_bias=0 / direct=2 / weightb=1 / open_gop=0 / weightp=2 / keyint=250 / keyint_min=25 / scenecut=40 / intra_refresh=0 / rc=crf / mbtree=0 / crf=17.0 / qcomp=0.60 / qpmin=0 / qpmax=69 / qpstep=4 / ip_ratio=1.40 / pb_ratio=1.30 / aq=1:1.00
Язык : English
Default : Да
Forced : Нет

Аудио
Идентификатор : 2
Формат : AC-3
Формат/Информация : Audio Coding 3
Коммерческое название : Dolby Digital
Идентификатор кодека : A_AC3
Продолжительность : 1 ч. 37 м.
Вид битрейта : Постоянный
Битрейт : 384 Кбит/сек
Каналы : 6 каналов
Channel layout : L R C LFE Ls Rs
Частота : 48,0 КГц
Частота кадров : 31,250 кадров/сек (1536 SPF)
Битовая глубина : 16 бит
Метод сжатия : С потерями
Размер потока : 269 Мбайт (7%)
Заголовок : Dub
Язык : Russian
ServiceKind/String : Complete Main
Default : Да
Forced : Нет

Текст #1
Идентификатор : 3
Формат : UTF-8
Идентификатор кодека : S_TEXT/UTF8
Идентификатор кодека/Информация : UTF-8 Plain Text
Продолжительность : 1 ч. 14 м.
Битрейт : 0 бит/сек
ElementCount : 11
Размер потока : 304 байт (0%)
Заголовок : Froced
Язык : Russian
Default : Да
Forced : Нет

Текст #2
Идентификатор : 4
Формат : UTF-8
Идентификатор кодека : S_TEXT/UTF8
Идентификатор кодека/Информация : UTF-8 Plain Text
Продолжительность : 1 ч. 36 м.
Битрейт : 59 бит/сек
ElementCount : 918
Размер потока : 42,0 Кбайт (0%)
Язык : Russian
Default : Нет
Forced : Нет

Текст #3
Идентификатор : 5
Формат : UTF-8
Идентификатор кодека : S_TEXT/UTF8
Идентификатор кодека/Информация : UTF-8 Plain Text
Продолжительность : 1 ч. 33 м.
Битрейт : 40 бит/сек
ElementCount : 1086
Размер потока : 27,6 Кбайт (0%)
Язык : English
Default : Нет
Forced : Нет

Текст #4
Идентификатор : 6
Формат : UTF-8
Идентификатор кодека : S_TEXT/UTF8
Идентификатор кодека/Информация : UTF-8 Plain Text
Продолжительность : 1 ч. 33 м.
Битрейт : 49 бит/сек
ElementCount : 1402
Размер потока : 34,1 Кбайт (0%)
Заголовок : SDH
Язык : English
Default : Нет
Forced : Нет

Текст #5
Идентификатор : 7
Формат : UTF-8
Идентификатор кодека : S_TEXT/UTF8
Идентификатор кодека/Информация : UTF-8 Plain Text
Продолжительность : 1 ч. 33 м.
Битрейт : 70 бит/сек
ElementCount : 1402
Размер потока : 48,1 Кбайт (0%)
Заголовок : SDH-COLORED
Язык : English
Default : Нет
Forced : Нет

Меню
00:00:00.000 : es:Global Panic
00:03:22.994 : es:Meet Gru
00:08:04.734 : es:Crime Of The Century
00:15:50.866 : es:Home for Girls
00:18:28.232 : es:Bank of Evil
00:24:36.892 : es:Shrink Ray Theft
00:30:50.723 : es:Vector's Fortress
00:34:40.703 : es:Adoption
00:40:48.279 : es:Setting Some Rules
00:46:26.200 : es:Top Secret
00:51:23.121 : es:Pinky Promise
00:56:27.425 : es:Cookiebots
01:00:00.471 : es:Fun Land
01:03:27.053 : es:Cotton Candy?
01:08:44.078 : es:New Funding
01:14:01.979 : es:Sleepy Kittens
01:18:08.058 : es:To The Moon
01:22:33.907 : es:Rescue
01:27:09.098 : es:One Big Unicorn
01:30:33.719 : es:End Titles

Просьба к переливающим на другие сайты, в оформлении указывайте пожалуйста авторство группы R.G. HD-Films piratbit.org



Скачать Гадкий я 2 через торрент http://i066.radikal.ru/1712/fb/853ce04d0c44.jpg Скачать фильм Гадкий я 2 через торрент бесплантно в хорошем качестве Описание: В то время как Грю, бывший суперзлодей, приспосабливается к семейной жизни и пытается честным трудом зарабатывать в сфере ... 10 10 6
Info! Золотая раздача, скачанное не засчитывается.
Торрент: Зарегистрирован [2021-04-13 16:30] · скачан: 21 раз
Статус: √ проверено
Размер: 4 GB
Как cкачать? Как скачать Гадкий я 2 через торрент | UTorrent

28-11-2019 20:33  

Отключить всю рекламу на сайте

13-04-2021 18:54 Гадкий я 2 Скачать торрент  

Рейтинг: 5 / 10 (1) +10+9+8+7+6+5+4+3+2+1 <-- оцени раздачу
Неужели все так плохо?piratbit.org



14-04-2021 06:21 Гадкий я 2 Скачать торрент  

slaventi-69 писал(а):

Рейтинг: 5 / 10 (1) +10+9+8+7+6+5+4+3+2+1 <-- оцени раздачу
Неужели все так плохо?

Дружище всё норм! Не обращай внимание! Тролей везде хватает!piratbit.org



    Дорогой пользователь! Огромная просьба, поблагодарите релизера, оцените раздачу и оставьте свои комментарий, если Вы скачали Гадкий я 2 через торрент бесплатно! Внесите свою лепту в развитие PiratBit!
    Комментировать посты могут только пользователи прошедшие не сложную регистрацию
    Показать сообщения:    

    Гадкий я 2 через торрент
    Скачать бесплатно Гадкий я 2
    Гадкий я 2 скачать торрент
    Гадкий я 2 смотреть онлайн
    Cкачать фильм Гадкий я 2 бесплатно
    Гадкий я 2 скачать торрент в хорошем качестве
    Гадкий я 2 смотреть онлайн бесплатно в хорошем качестве


    Вы не можете начинать темы
    Вы не можете отвечать на сообщения
    Вы не можете редактировать свои сообщения
    Вы не можете удалять свои сообщения
    Вы не можете голосовать в опросах
    Вы не можете прикреплять файлы к сообщениям
    Вы можете скачивать файлы