Достать ножи: Стеклянная луковица

MVO

Добыча

Дубляж

Уэнсдэй

1 сезон

Тор

Дубляж

13 клиническая

1 сезон

Жестокая ночь

MVO

Одни из нас

1 сезон

Deluxe

pack

Рекомендуем

30

Пиратка

ВАЖНО

ВАЖНО

Ghostwire

Пиратка

jed

RePack

nioh2

RePack

RDR2

RePack

NEED FOR SPEED™ PAYBACK

RePack

скачать торрент

Кинопоиск HD

Острые козырьки 6 сезон

6 сезон

FAR CRY 6

RePack

скачать торрент

Лицензия

скачать торрент

MVO

1

1 сезон

скачать торрент

1 сезон

скачать торрент

Лицензия

  

Никто / Nobody (Илья Найшуллер) [2021, Боевик, триллер, криминал, UHD WEB-DL 2160p] MVO [HDRezka]

Никто через торрент piratbit.org

Раздают: 1 [ 0 KB/s ]
Размер: 10.54 GB | Добавлен: 1 год 9 мес. назад | Торрент скачан:829 раз
Смотреть онлайн | Скачать | Поддержите нас   

20-04-2021 03:27 Никто Скачать торрент  

Никто | Nobody
Год выпуска: 2021
Страна: США
Выпущено: 87North, Eighty Two Films, Odenkirk Provissiero Entertainment
Жанр: Боевик, триллер, криминал
Продолжительность: 01:31:40
Перевод: Профессиональный (многоголосый) | HDRezka
Субтитры: Русские (Forced, full), английские

Режиссер: Илья Найшуллер

rating

В ролях: Боб Оденкерк, Конни Нильсен, Кристофер Ллойд, Пол Эссимбр, Хамберли Гонсалес, Жан-Поль Мано, Арая Менгеша, Гейдж Манро, Кристен Харрис, Эрик Атхавале, Александр Паль, Алексей Серебряков

Описание: Самый обычный и непримечательный человек, не имеющий никакого веса в обществе, случайно попадает под прицел наркобарона, спасая женщину от нападения бандитов. Когда после этого один из них оказывается в больнице, герой узнает, что это был брат крупного гангстера, и теперь его ждет месть.

Качество: UHD WEB-DL 2160p
Формат: MKV

Видео: 3840x1600 at 23.976 fps, MPEG-H HEVC HDR Video, ~ 14900 kbps avg
Аудио #01: 48 kHz, AC3, 5.1, 448 Kbps | Профессиональный многоголосый | HDRezka (Censored) | RUS |
Аудио #02: 48 kHz, AC3, 5.1, 448 Kbps | Профессиональный многоголосый | HDRezka (Uncensored) | RUS |
Аудио #03: 48 kHz, E-AC3, 5.1, 640 Kbps | Оригинал | ENG |
скриншот  скриншот  скриншот  скриншот  скриншот  

General
Unique ID : 66882929171201926049123306096498448347 (0x32512F00CC1792A140DE3544C25217DB)
Complete name : F:Video2Nobody.2021.WEB-DL.2160p.HDR.seleZen.mkv
Format : Matroska
Format version : Version 4
File size : 10.5 GiB
Duration : 1 h 31 min
Overall bit rate : 16.5 Mb/s
Movie name : Nobody 2021 from seleZen
Encoded date : UTC 2021-04-20 03:09:45
Writing application : mkvmerge v55.0.0 ('Waiting For Space') 64-bit
Writing library : libebml v1.4.2 + libmatroska v1.6.4

Video
ID : 1
Format : HEVC
Format/Info : High Efficiency Video Coding
Format profile : Main 10@L5@Main
HDR format : SMPTE ST 2094 App 4, Version 1, HDR10+ Profile B compatible
Codec ID : V_MPEGH/ISO/HEVC
Duration : 1 h 31 min
Bit rate : 14.9 Mb/s
Width : 3 840 pixels
Height : 1 600 pixels
Display aspect ratio : 2.40:1
Frame rate mode : Constant
Frame rate : 23.976 (24000/1001) FPS
Color space : YUV
Chroma subsampling : 4:2:0
Bit depth : 10 bits
Bits/(Pixel*Frame) : 0.101
Stream size : 9.55 GiB (91%)
Language : English
Default : Yes
Forced : No
Color range : Limited
Color primaries : BT.2020
Transfer characteristics : PQ
Matrix coefficients : BT.2020 non-constant
Mastering display color pri : Display P3
Mastering display luminance : min: 0.0050 cd/m2, max: 1000 cd/m2
Maximum Content Light Level : 1000 cd/m2
Maximum Frame-Average Light : 312 cd/m2

Audio #1
ID : 2
Format : AC-3
Format/Info : Audio Coding 3
Commercial name : Dolby Digital
Codec ID : A_AC3
Duration : 1 h 31 min
Bit rate mode : Constant
Bit rate : 448 kb/s
Channel(s) : 6 channels
Channel layout : L R C LFE Ls Rs
Sampling rate : 48.0 kHz
Frame rate : 31.250 FPS (1536 SPF)
Compression mode : Lossy
Stream size : 294 MiB (3%)
Title : MVO [HDRezka (Censored)]
Language : Russian
Service kind : Complete Main
Default : Yes
Forced : Yes

Audio #2
ID : 3
Format : AC-3
Format/Info : Audio Coding 3
Commercial name : Dolby Digital
Codec ID : A_AC3
Duration : 1 h 31 min
Bit rate mode : Constant
Bit rate : 448 kb/s
Channel(s) : 6 channels
Channel layout : L R C LFE Ls Rs
Sampling rate : 48.0 kHz
Frame rate : 31.250 FPS (1536 SPF)
Compression mode : Lossy
Stream size : 294 MiB (3%)
Title : MVO [HDRezka (Uncensored)]
Language : Russian
Service kind : Complete Main
Default : No
Forced : No

Audio #3
ID : 4
Format : E-AC-3
Format/Info : Enhanced AC-3
Commercial name : Dolby Digital Plus
Codec ID : A_EAC3
Duration : 1 h 31 min
Bit rate mode : Constant
Bit rate : 640 kb/s
Channel(s) : 6 channels
Channel layout : L R C LFE Ls Rs
Sampling rate : 48.0 kHz
Frame rate : 31.250 FPS (1536 SPF)
Compression mode : Lossy
Stream size : 420 MiB (4%)
Title : Original
Language : English
Service kind : Complete Main
Default : No
Forced : No

Text #1
ID : 5
Format : UTF-8
Codec ID : S_TEXT/UTF8
Codec ID/Info : UTF-8 Plain Text
Duration : 1 h 29 min
Bit rate : 3 b/s
Count of elements : 68
Stream size : 2.41 KiB (0%)
Title : Forced [HDRezka]
Language : Russian
Default : Yes
Forced : Yes

Text #2
ID : 6
Format : UTF-8
Codec ID : S_TEXT/UTF8
Codec ID/Info : UTF-8 Plain Text
Duration : 1 h 28 min
Bit rate : 51 b/s
Count of elements : 805
Stream size : 33.3 KiB (0%)
Title : Full [FOCS (Uncensored)]
Language : Russian
Default : No
Forced : No

Text #3
ID : 7
Format : UTF-8
Codec ID : S_TEXT/UTF8
Codec ID/Info : UTF-8 Plain Text
Duration : 1 h 26 min
Bit rate : 28 b/s
Count of elements : 740
Stream size : 18.1 KiB (0%)
Title : Full
Language : English
Default : No
Forced : No

Text #4
ID : 8
Format : UTF-8
Codec ID : S_TEXT/UTF8
Codec ID/Info : UTF-8 Plain Text
Duration : 1 h 31 min
Bit rate : 48 b/s
Count of elements : 1329
Stream size : 32.4 KiB (0%)
Title : SDH
Language : English
Default : No
Forced : No




Скачать Никто через торрент https://i114.fastpic.ru/big/2021/0420/98/58d1895efcda64042c0dc2051760aa98.jpg Скачать, смотреть онлайн Никто бесплантно в хорошем качестве Описание: Самый обычный и непримечательный человек, не имеющий никакого веса в обществе, случайно попадает под прицел наркобарона, спасая ... 9.9 10 21
Info! Золотая раздача, скачанное не засчитывается.
Торрент: Зарегистрирован [2021-04-20 03:27] · скачан: 829 раз
Статус: √ проверено
Размер: 10.54 GB
Как cкачать? Как скачать Никто через торрент | UTorrent

% Раздел Тема Автор DL S | L
Фильмы [HD 720p, 1080p] (Хороший звук DUB, MVO) [ 8.62 GB ] Никто / Nobody | iTunes | 720p bober100 Скачать
13 | 1
Ultra HD (UHD: 2K, 4K, 8K) [ 42.37 GB ] Никто / Nobody | iTunes | 2160p bober100 Скачать
1 | 0
Ultra HD (UHD: 2K, 4K, 8K) [ 45.04 GB ] Никто / Nobody | iTunes | 2160p, (Dolby Vision bober100 Скачать
1 | 0
Фильмы [HD 720p, 1080p] (Хороший звук DUB, MVO) [ 24.47 GB ] Никто / Nobody | iTunes | 1080p bober100 Скачать
1 | 0
Фильмы 2021 [DVDrip, WEB-DLRip, HDrip] (DUB, MVO) [ 1.46 GB ] Никто / Nobody | iTunes | BDRip bober100 Скачать
4 | 0
Фильмы 2021 [DVDrip, WEB-DLRip, HDrip] (DUB, MVO) [ 1.46 GB ] Никто / Nobody | Лицензия | HDRip Twi7ter Скачать
7 | 0
Фильмы (WEB-DL 720p, 1080p) [ 7.8 GB ] Никто / Nobody | iTunes | 1080p bober100 Скачать
3 | 0

28-11-2019 20:33  


Отключить вcю реклaмy на сайте, в т.ч. и в плеере онлайн просмотра!

23-04-2021 09:18 Никто Скачать торрент  

Классный фильм, рекомендую



26-04-2021 05:17 Никто Скачать торрент  

обалденный фильм.смотреть стоит.Хорошего просмотра и спасибо за раздачу всем



15-05-2021 16:23 Никто Скачать торрент  

не ожидал, а фильм то зачётный!



25-07-2021 09:11 Никто Скачать торрент  

к просмотру рекомендуется!!!



    Дорогой пользователь! Огромная просьба, поблагодарите релизера, оцените раздачу и оставьте свои комментарий, если Вы скачали Никто через торрент бесплатно!!
    Комментировать посты могут только пользователи прошедшие не сложную регистрацию
    Показать сообщения:    


    Никто через торрент
    Скачать бесплатно Никто
    Никто скачать торрент
    Никто смотреть онлайн
    Cкачать фильм Никто бесплатно
    Никто скачать торрент в хорошем качестве
    Никто смотреть онлайн бесплатно в хорошем качестве
    Вы не можете начинать темы
    Вы не можете отвечать на сообщения
    Вы не можете редактировать свои сообщения
    Вы не можете удалять свои сообщения
    Вы не можете голосовать в опросах
    Вы не можете прикреплять файлы к сообщениям
    Вы можете скачивать файлы
    Никто / Nobody [2021, Боевик, триллер, криминал, UHD WEB-DL 2160p] MVO [HDRezka] смотреть онлайн, скачать торрент picoco.icu