1 сезон

1 сезон

iTunes

1

iTunes

Кинопоиск HD

iTunes

13

1 сезон

RePack

30

Deluxe

ВАЖНО

ИГРА 18+

pack

RePack

MK11
pack

Легкие деньги

RePack

jed

RePack

fifa19

RePack

RDR2

RePack

NEED FOR SPEED™ PAYBACK

4 сезон

9 сезон

Бесстыжие 9 сезон

Все сериалы

все сериалы на PB.wtf

RePack

FAR CRY 5
  
Magnet ссылка

Крёстный отец Гарлема / Godfather of Harlem / Сезон: 2 / Серии: 1-3 из 10 (Джон Ридли) [2021, Драма, криминал, WEB-DL 720p] [MVO] (HDRezka Studio) piratbit.org

Крёстный отец Гарлема через торрент piratbit.org

Раздают: 7 [ 124 KB/s ] Качают: 1 [ 0 KB/s ]
Размер: 5 GB | Добавлен: 7 д. назад | Торрент скачан:21 раз
Скачать  

20-04-2021 08:53 Крёстный отец Гарлема Скачать торрент  

Крёстный отец Гарлема / Godfather of Harlem

✦ Год выхода: 2021
✦ Выпущено: США
✦ Жанр: Драма, криминал
✦ Продолжительность: ~ 00:55:00
✦ Перевод: Профессиональный (многоголосый) *HDRezka Studio
✦ Субтитры: русские (forced), английские

Режиссеры: Джон Ридли

В ролях: Форест Уитакер, Люси Фрай, Дэми Синглтон, Серин Браун, Джамал Бёрчер, Антаунетте Кроу-Легаси, Винсент Д`Онофрио, Джанкарло Эспозито, Ильфенеш Хадера, Келвин Харрисон
Описание:
Правдивая история криминального босса Бампи Джонсона, родившегося на юге страны в бедной семье и построившего настоящую преступную империю после переезда в Нью-Йорк. Оказавшись в молодости в «Большом яблоке», он был взят под крыло состоятельной Стефани Сент Клер, ставшей для него крестной матерью, которую он вскоре затмил своим авторитетом. Проведя 10-летний срок в тюрьме за продажу героина в особо крупных размерах, в 1962 году мужчина возвращается в родной Гарлем, которым в то время уже правила итальянская мафия. Видя это, Джонсон решает поднять все свои связи, чтобы вернуть утраченное влияние в районе.

rating
скриншот  

Информация о файле

✦ Качество: WEB-DL 720p *AMZN
✦ Формат: MKV
✦ Видео кодек: x.264
✦ Аудио кодек: AC3, E-AC3
✦ Видео: AVC, 1280x720, ~3 334 Kbps, 23.976 fps
✦ Аудио #1 Rus: 48 kHz, AC3 Dolby Digital, 6 ch, ~448.00 kbps *HDRezka Studio
✦ Аудио #2 Eng: 48 kHz, E-АС3 Dolby Digital, 6 ch, ~640 kbps
скриншот   скриншот   скриншот   скриншот   скриншот   скриншот  
General
Unique ID : 237465331102489181785882540698547585385 (0xB2A628C0D57889399A684AE94E850169)
Complete name : F:\Godfather Of Harlem.S02.AMZN.WEB-DL 720p\Godfather Of Harlem.S02E01.WEB-DL(720p).[MVO] (HDRezka Studio).xz.mkv
Format : Matroska
Format version : Version 4 / Version 2
File size : 1.67 GiB
Duration : 52mn 57s
Overall bit rate : 4 511 Kbps
Movie name : Godfather Of Harlem.S02E01.WEB-DL(720p).[MVO] (HDRezka Studio).xz
Encoded date : UTC 2021-04-20 08:36:28
Writing application : mkvmerge v6.1.0 ('Old Devil') built on Mar 2 2013 14:32:37
Writing library : libebml v1.3.0 + libmatroska v1.4.0
DURATION : 00:52:26.360000000
NUMBER_OF_FRAMES : 1029
NUMBER_OF_BYTES : 31123
_STATISTICS_WRITING_APP : mkvmerge v56.1.0 ('My Friend') 64-bit
_STATISTICS_TAGS : BPS DURATION NUMBER_OF_FRAMES NUMBER_OF_BYTES

Video
ID : 1
Format : AVC
Format/Info : Advanced Video Codec
Format profile : High@L3.1
Format settings, CABAC : Yes
Format settings, ReFrames : 4 frames
Codec ID : V_MPEG4/ISO/AVC
Duration : 52mn 57s
Bit rate mode : Constant
Bit rate : 3 334 Kbps
Nominal bit rate : 6 000 Kbps
Width : 1 280 pixels
Height : 720 pixels
Display aspect ratio : 16:9
Frame rate mode : Constant
Frame rate : 23.976 fps
Color space : YUV
Chroma subsampling : 4:2:0
Bit depth : 8 bits
Scan type : Progressive
Bits/(Pixel*Frame) : 0.151
Stream size : 1.23 GiB (74%)
Title : Godfather Of Harlem.S02E01.WEB-DL(720p).[MVO] (HDRezka Studio).xz
Default : Yes
Forced : No
Color range : Limited
Color primaries : BT.709
Transfer characteristics : BT.709
Matrix coefficients : BT.709

Audio #1
ID : 2
Format : AC-3
Format/Info : Audio Coding 3
Mode extension : CM (complete main)
Format settings, Endianness : Big
Codec ID : A_AC3
Duration : 52mn 57s
Bit rate mode : Constant
Bit rate : 448 Kbps
Channel(s) : 6 channels
Channel positions : Front: L C R, Side: L R, LFE
Sampling rate : 48.0 KHz
Compression mode : Lossy
Stream size : 170 MiB (10%)
Title : HDRezka Studio
Language : Russian
Default : Yes
Forced : No

Audio #2
ID : 3
Format : E-AC-3
Format/Info : Audio Coding 3
Format settings, Endianness : Big
Codec ID : A_EAC3
Duration : 52mn 57s
Bit rate mode : Constant
Bit rate : 640 Kbps
Channel(s) : 6 channels
Channel positions : Front: L C R, Side: L R, LFE
Sampling rate : 48.0 KHz
Compression mode : Lossy
Stream size : 242 MiB (14%)
Language : English
Default : No
Forced : No

Text #1
ID : 4
Format : UTF-8
Codec ID : S_TEXT/UTF8
Codec ID/Info : UTF-8 Plain Text
Title : rus (forced)
Language : Russian
Default : Yes
Forced : No

Text #2
ID : 5
Format : UTF-8
Codec ID : S_TEXT/UTF8
Codec ID/Info : UTF-8 Plain Text
Language : English
Default : No
Forced : No

Text #3
ID : 6
Format : UTF-8
Codec ID : S_TEXT/UTF8
Codec ID/Info : UTF-8 Plain Text
Title : SDH
Language : English
Default : No
Forced : No
Внимание! Раздача ведётся путём добавления новых серий; при каждом добавлении создаётся новый торрент. Чтобы начать докачку новой серии, пользователям необходимо сделать следующее:
(1) остановить скачивание,
(2) удалить старый торрент у себя из клиента (старые серии удалять не надо),
(3) скачать новый торрент и запустить его у себя в клиенте вместо старого, при этом указать клиенту путь в старую папку куда и должно происходить скачивание новых серий.

Ваш клиент при этом должен произвести хеширование (проверку) старой папки (если не производит сам - помогите ему сделать это), и будет докачивать только те серии которых у вас ещё нет. Старые серии при этом не удаляются, а продолжают раздаваться!

Eсли вы уже удалили старые серии, то предотвратить повторную закачку старых серий можно, отжав галочку в соответствующих местах при запуске нового торрента. По возможности, желательно не удалять старые серии как можно дольше чтобы релизёр не столько продолжал раздавать старые серии, а смог сконцентрироваться на новых.
piratbit.org
Kkillermax2013 писал(а):

+3 серия!!!



Скачать Крёстный отец Гарлема через торрент https://i2.imageban.ru/out/2021/04/20/f4f9949793889715c524af3c49fa22e5.jpg Скачать фильм Крёстный отец Гарлема через торрент бесплантно в хорошем качестве Описание:Правдивая история криминального босса Бампи Джонсона, родившегося на юге страны в бедной семье и построившего настоящую преступную ... 10 10 7
Торрент: Зарегистрирован [2021-05-04 07:13] · скачан: 21 раз
Статус: √ проверено
Размер: 5 GB
Как cкачать? Как скачать Крёстный отец Гарлема через торрент | UTorrent

28-11-2019 20:33  

Отключить всю рекламу на сайте

    Дорогой пользователь! Огромная просьба, поблагодарите релизера, оцените раздачу и оставьте свои комментарий, если Вы скачали Крёстный отец Гарлема через торрент бесплатно! Внесите свою лепту в развитие PiratBit!
    Комментировать посты могут только пользователи прошедшие не сложную регистрацию
    Показать сообщения:    

    Крёстный отец Гарлема через торрент
    Скачать бесплатно Крёстный отец Гарлема
    Крёстный отец Гарлема скачать торрент
    Крёстный отец Гарлема смотреть онлайн
    Cкачать фильм Крёстный отец Гарлема бесплатно
    Крёстный отец Гарлема скачать торрент в хорошем качестве
    Крёстный отец Гарлема смотреть онлайн бесплатно в хорошем качестве


    Вы не можете начинать темы
    Вы не можете отвечать на сообщения
    Вы не можете редактировать свои сообщения
    Вы не можете удалять свои сообщения
    Вы не можете голосовать в опросах
    Вы не можете прикреплять файлы к сообщениям
    Вы можете скачивать файлы