1 сезон

1 сезон

iTunes

1

iTunes

Кинопоиск HD

iTunes

13

1 сезон

RePack

30

GLOBAL

ВАЖНО

ИГРА 18+

pack

RePack

MK11
pack

Легкие деньги

RePack

jed

RePack

fifa19

RePack

RDR2

RePack

NEED FOR SPEED™ PAYBACK

4 сезон

9 сезон

Бесстыжие 9 сезон

Все сериалы

все сериалы на PB.wtf

RePack

FAR CRY 5
  
Magnet ссылка

Кингсглейв: Последняя фантазия XV / Kingsglaive: Final Fantasy XV (Такэси Нодзуэ) [2016, мультфильм, фантастика, фэнтези, UHD BDRemux 2160p] MVO [Лицензия] piratbit.org

Кингсглейв: Последняя фантазия XV через торрент piratbit.org

Раздают: 1 [ 0 KB/s ]
Размер: 33.69 GB | Добавлен: 25 д. назад | Торрент скачан:22 раза
Скачать  

20-04-2021 17:04 Кингсглейв: Последняя фантазия XV Скачать торрент  

Кингсглейв: Последняя фантазия XV | Kingsglaive: Final Fantasy XV
Год выпуска: 2016
Страна: Япония, США
Студия: Square Enix Company, Square USA
Жанр: мультфильм, фантастика, фэнтези
Продолжительность: 01:55:21
Перевод: Профессиональный многоголосый | Лицензия
Субтитры: Русские (2 x Full), английские

Режиссер: Такэси Нодзуэ

rating

В ролях:

Аарон Пол (Nyx Ulric, озвучка), Лина Хиди (Lunafreya Nox Fleuret, озвучка), Шон Бин (Regis Lucis Caelum, озвучка), Адриан Буше (Titus Drautos / General Glauca, озвучка), Liam Mulvey (Libertus Ostium, озвучка), Алекса Кан (Crowe Altius, озвучка), Тодд Хаберкорн (Luche Lazarus, озвучка), Джон ДеМита (Clarus Amicitia, озвучка), Дэвид Гант (Iedolas Aldercapt, озвучка), Дэрин Де Пол (Ardyn Izunia, озвучка), Тревор Дивэлл (Ravus Nox Fleuret, озвучка), Нейл Ньюбон (Petra Fortis, озвучка)
Описание: Волшебное королевство Люцис является домом для священного Кристалла, но враждебная империя Нифльхейм не остановится ни перед чем, чтобы захватить реликвию. Король Люциса Регис возглавляет элитный отряд солдат, именуемых «Кингсглейв». Вооружившись магией короля, Никс Ульрик и его верные товарищи из Кингсглейв становятся на защиту столицы Инсомния, чтобы остановить неумолимое наступление имперской армии. Перед превосходящими силами Нифльхейма Королю Регису ничего не остаётся, как согласиться на ультиматум, уступив все свои земли за пределами столицы и женив своего сына Ноктиса на Леди Лунафрее, бывшей принцессе ныне захваченной земли Тенебра. В разбушевавшейся войне махинации Нифльхейма превращают Инсомнию в грандиозное поле битвы, затягивая Никса в борьбу за выживание всего королевства.

Качество: UHD BDRemux 2160p
Формат: MKV

Видео: 3840x2160 at 23.976 fps, MPEG-H HEVC HDR Video, ~ 38800 kbps avg
Аудио #01: 48 kHz, AC3, 5.1, 640 Kbps | Профессиональный многоголосый | RUS |
Аудио #02: 48 kHz, DTS-HD MA, 5.1, 2319 Kbps | Оригинал | ENG |
скриншот  скриншот  скриншот  скриншот  скриншот  

General
Unique ID : 218971832767457175965681191756455625117 (0xA4BC70E36FFC5D31840D9851C7CA419D)
Complete name : F:VideoKingsglaive.Final.Fantasy.XV.2016.BDREMUX.2160p.HDR.seleZen.mkv
Format : Matroska
Format version : Version 4
File size : 33.7 GiB
Duration : 1 h 55 min
Overall bit rate mode : Variable
Overall bit rate : 41.8 Mb/s
Movie name : Kingsglaive: Final Fantasy XV 2016 from seleZen
Encoded date : UTC 2021-04-09 11:28:09
Writing application : mkvmerge v55.0.0 ('Waiting For Space') 64-bit
Writing library : libebml v1.4.2 + libmatroska v1.6.4
Cover : Yes
Attachments : cover.jpg

Video
ID : 1
ID in the original source m : 4113 (0x1011)
Format : HEVC
Format/Info : High Efficiency Video Coding
Format profile : Main 10@L5.1@High
HDR format : SMPTE ST 2086, HDR10 compatible
Codec ID : V_MPEGH/ISO/HEVC
Duration : 1 h 55 min
Bit rate : 38.8 Mb/s
Width : 3 840 pixels
Height : 2 160 pixels
Display aspect ratio : 16:9
Frame rate mode : Constant
Frame rate : 23.976 (24000/1001) FPS
Color space : YUV
Chroma subsampling : 4:2:0 (Type 2)
Bit depth : 10 bits
Bits/(Pixel*Frame) : 0.195
Stream size : 31.3 GiB (93%)
Language : English
Default : No
Forced : No
Color range : Limited
Color primaries : BT.2020
Transfer characteristics : PQ
Matrix coefficients : BT.2020 non-constant
Mastering display color pri : Display P3
Mastering display luminance : min: 0.0050 cd/m2, max: 4000 cd/m2
Maximum Content Light Level : 2387 cd/m2
Maximum Frame-Average Light : 345 cd/m2
Original source medium : Blu-ray

Audio #1
ID : 2
Format : AC-3
Format/Info : Audio Coding 3
Commercial name : Dolby Digital
Codec ID : A_AC3
Duration : 1 h 55 min
Bit rate mode : Constant
Bit rate : 640 kb/s
Channel(s) : 6 channels
Channel layout : L R C LFE Ls Rs
Sampling rate : 48.0 kHz
Frame rate : 31.250 FPS (1536 SPF)
Compression mode : Lossy
Stream size : 528 MiB (2%)
Title : MVO [License]
Language : Russian
Service kind : Complete Main
Default : Yes
Forced : Yes

Audio #2
ID : 3
ID in the original source m : 4352 (0x1100)
Format : DTS XLL
Format/Info : Digital Theater Systems
Commercial name : DTS-HD Master Audio
Codec ID : A_DTS
Duration : 1 h 55 min
Bit rate mode : Variable
Bit rate : 2 319 kb/s
Channel(s) : 6 channels
Channel layout : C L R Ls Rs LFE
Sampling rate : 48.0 kHz
Frame rate : 93.750 FPS (512 SPF)
Bit depth : 16 bits
Compression mode : Lossless
Stream size : 1.87 GiB (6%)
Title : Original
Language : English
Default : No
Forced : No
Original source medium : Blu-ray

Text #1
ID : 4
Format : UTF-8
Codec ID : S_TEXT/UTF8
Codec ID/Info : UTF-8 Plain Text
Duration : 1 h 55 min
Bit rate : 73 b/s
Count of elements : 1091
Stream size : 61.8 KiB (0%)
Title : Full [Blu-ray EUR]
Language : Russian
Default : No
Forced : No

Text #2
ID : 5
Format : UTF-8
Codec ID : S_TEXT/UTF8
Codec ID/Info : UTF-8 Plain Text
Duration : 1 h 55 min
Bit rate : 70 b/s
Count of elements : 1091
Stream size : 59.7 KiB (0%)
Language : Russian
Default : No
Forced : No

Text #3
ID : 6
Format : UTF-8
Codec ID : S_TEXT/UTF8
Codec ID/Info : UTF-8 Plain Text
Duration : 1 h 55 min
Bit rate : 43 b/s
Count of elements : 1075
Stream size : 37.1 KiB (0%)
Title : Full
Language : English
Default : No
Forced : No

Text #4
ID : 7
Format : UTF-8
Codec ID : S_TEXT/UTF8
Codec ID/Info : UTF-8 Plain Text
Duration : 1 h 55 min
Bit rate : 47 b/s
Count of elements : 1240
Stream size : 40.2 KiB (0%)
Title : SDH
Language : English
Default : No
Forced : No

Text #5
ID : 8
Format : UTF-8
Codec ID : S_TEXT/UTF8
Codec ID/Info : UTF-8 Plain Text
Duration : 1 h 55 min
Bit rate : 80 b/s
Count of elements : 1078
Stream size : 67.8 KiB (0%)
Title : Colored
Language : English
Default : No
Forced : No

Menu
00:00:00.000 : en:Chapter 01
00:11:54.714 : en:Chapter 02
00:15:36.644 : en:Chapter 03
00:20:12.294 : en:Chapter 04
00:25:29.903 : en:Chapter 05
00:32:02.795 : en:Chapter 06
00:38:50.119 : en:Chapter 07
00:43:33.152 : en:Chapter 08
00:49:54.032 : en:Chapter 09
00:54:47.158 : en:Chapter 10
01:02:01.509 : en:Chapter 11
01:12:43.567 : en:Chapter 12
01:20:48.301 : en:Chapter 13
01:26:12.876 : en:Chapter 14
01:37:06.445 : en:Chapter 15
01:41:45.140 : en:Chapter 16

piratbit.org



Скачать Кингсглейв: Последняя фантазия XV через торрент https://b.radikal.ru/b32/2104/47/e13a4b07196a.jpg Скачать фильм Кингсглейв: Последняя фантазия XV через торрент бесплантно в хорошем качестве Описание: Волшебное королевство Люцис является домом для священного Кристалла, но враждебная империя Нифльхейм не остановится ни перед чем, ... 10 10 3
Info! Золотая раздача, скачанное не засчитывается.
Торрент: Зарегистрирован [2021-04-20 17:04] · скачан: 22 раз
Статус: √ проверено
Размер: 33.69 GB
Как cкачать? Как скачать Кингсглейв: Последняя фантазия XV через торрент | UTorrent

% Раздел Тема Автор DL S | L
Зарубежные Мультфильмы (BDRip 1080p, 720p, Blu-ray, BD-Remux) [ 4.37 GB ] Кингсглейв: Последняя фантазия XV / Kingsglaive: Final Fantasy XV [2016 мультфильм BDRip 720p] MVO [] potroks Скачать
1 | 0
Мультфильмы (48-60 fps) [ 6.24 GB ] Кингсглейв: Последняя фантазия XV / Kingsglaive: Final Fantasy XV [2016 Мультфильм BDRip 720p by mimok MVO] 48fps mimok Скачать
1 | 0
Иностранные мультфильмы [ 1.46 GB ] Кингсглейв: Последняя фантазия XV / Kingsglaive: Final Fantasy XV [2016 мультфильм BDRip] MVO [] Twi7ter Скачать
2 | 0
T Релизы по Парсеру [Игры, Сериалы и Фильмы и другое...] [ 3.96 GB ] Кингсглейв: Последняя фантазия XV / Kingsglaive: Final Fantasy XV WEB-DL 1080p / Ворон Скачать
1 | 0
T Релизы по Парсеру [Игры, Сериалы и Фильмы и другое...] [ 747 MB ] Кингсглейв: Последняя фантазия XV / Kingsglaive: Final Fantasy XV WEB-DLRip / Ворон Скачать
1 | 0

28-11-2019 20:33  

Отключить всю рекламу на сайте

    Дорогой пользователь! Огромная просьба, поблагодарите релизера, оцените раздачу и оставьте свои комментарий, если Вы скачали Кингсглейв: Последняя фантазия XV через торрент бесплатно! Внесите свою лепту в развитие PiratBit!
    Комментировать посты могут только пользователи прошедшие не сложную регистрацию
    Показать сообщения:    

    Кингсглейв: Последняя фантазия XV через торрент
    Скачать бесплатно Кингсглейв: Последняя фантазия XV
    Кингсглейв: Последняя фантазия XV скачать торрент
    Кингсглейв: Последняя фантазия XV смотреть онлайн
    Cкачать фильм Кингсглейв: Последняя фантазия XV бесплатно
    Кингсглейв: Последняя фантазия XV скачать торрент в хорошем качестве
    Кингсглейв: Последняя фантазия XV смотреть онлайн бесплатно в хорошем качестве


    Вы не можете начинать темы
    Вы не можете отвечать на сообщения
    Вы не можете редактировать свои сообщения
    Вы не можете удалять свои сообщения
    Вы не можете голосовать в опросах
    Вы не можете прикреплять файлы к сообщениям
    Вы можете скачивать файлы