1 сезон

1 сезон

iTunes

1

iTunes

Кинопоиск HD

iTunes

13

1 сезон

RePack

30

GLOBAL

ВАЖНО

ИГРА 18+

pack

RePack

MK11
pack

Легкие деньги

RePack

jed

RePack

fifa19

RePack

RDR2

RePack

NEED FOR SPEED™ PAYBACK

4 сезон

9 сезон

Бесстыжие 9 сезон

Все сериалы

все сериалы на PB.wtf

RePack

FAR CRY 5
  
Magnet ссылка

Тень и кость / Shadow and Bone / Сезон: 1 / Серии: 1-8 из 8 (Ли Толанд Кригер) [2021, фэнтези, боевик, драма, WEBRip 1080p] [Dub] (SDI Media) + 4x [MVO] piratbit.org

Тень и кость через торрент piratbit.org

Раздают: 4 [ 796 KB/s ]
Размер: 39.93 GB | Добавлен: 12 ч. назад | Торрент скачан:7 раз
Скачать  

23-04-2021 16:41 Тень и кость Скачать торрент  

Тень и кость / Shadow and Bone
Страна: США
Год выпуска: 2021
Жанр: фэнтези, боевик, драма
Продолжительность: 00:50:00
Перевод #1: Профессиональный (дублированный) | SDI Media
Перевод #2: Профессиональный (многоголосый закадровый) NewStudio
Перевод #3: Профессиональный (многоголосый закадровый) AlexFilm
Перевод #4: Профессиональный (многоголосый закадровый) HDRezka Studio
Перевод #5: Профессиональный (многоголосый закадровый) Lostfilm

Режиссёр: Ли Толанд Кригер, Майрзи Алмас, Дэн Лью, Джереми Уэбб, Эрик Хайссерер

В ролях: Джесси Мей Ли, Бен Барнс, Фредди Картер, Амита Суман, Кит Янг, Арчи Рено, Даниэль Галлиган, Дэйзи Хэд, Суджая Дасгупта, Кэлахан Скогман, Зоэ Уонамейкер, Кевин Элдон, Люк Паскуалино, Саймон Сирс, Джулиан Костов, Жасмин Блэкбороу, Габриэлла Брукс

Описание: По романам писательницы Ли Бардуго «Тень и Кость» и «Шестёрка воронов». В мире, разделённом на две части барьером вечной темноты, где сверхъестественные существа питаются человеческой плотью, девушка-солдат обнаруживает в себе невероятную силу, которая может объединить страну. Но против неё строят заговоры опасные силы. Бандиты, воры, убийцы и святые находятся в состоянии войны, и для выживания потребуется больше, чем магия.

rating

скриншот  

Качество: WEBRip 1080p
Контейнер: MKV
Видео: AVC, 1920x872 (2.2:1), ~ 10,6 Mbps, 23.976 fps
Аудио 1: AC3, 48 kHz, 6 ch, 640 kbps - Rus (SDI Media)
Аудио 2: AC3, 48 kHz, 6 ch, 384 kbps - Rus (NewStudio)
Аудио 3: AC3, 48 kHz, 6 ch, 384 kbps - Rus (AlexFilm)
Аудио 4: AC3, 48 kHz, 6 ch, 384 kbps - Rus (HDRezka Studio)
Аудио 5: AC3, 48 kHz, 2 ch, 384 kbps - Rus (Lostfilm)
Аудио 6: AC3, 48 kHz, 6 ch, 640 kbps - Eng
Субтитры: Русские (Forced, Full), английские (SDH), украинские, немецкие, французские, итальянские, испанские, голландские, португальские
Реклама: Отсутствует
Общее
Уникальный идентификатор : 227890177375538788620343230757511290106 (0xAB720D39D8DC4DCDBFEC563F4E22DCFA)
Полное имя : Тень и кость. Сериал. 2021. EniaHD (WEBRip 1080p)\Shadow.and.Bone.s01e01. Яркая вспышка света.mkv
Формат : Matroska
Версия формата : Version 2
Размер файла : 4,87 Гбайт
Продолжительность : 50 м. 45 с.
Общий поток : 13,7 Мбит/сек
Название фильма : Shadow.and.Bone.S01E01.A Searing Burst of Light.WEBRip 1080p.EniaHD@Atla22
Дата кодирования : UTC 2021-04-27 09:53:02
Программа кодирования : mkvmerge v6.9.1 ('Blue Panther') 32bit built on Apr 18 2014 18:15:44
Библиотека кодирования : libebml v1.3.0 + libmatroska v1.4.1

Видео
Идентификатор : 1
Формат : AVC
Формат/Информация : Advanced Video Codec
Профиль формата : High@L4.1
Настройки формата : CABAC / 5 Ref Frames
Параметр CABAC формата : Да
Параметр RefFrames формата : 5 кадров
Идентификатор кодека : V_MPEG4/ISO/AVC
Продолжительность : 50 м. 45 с.
Битрейт : 10,6 Мбит/сек
Ширина : 1920 пикселей
Высота : 872 пикселя
Соотношение сторон : 2,2:1
Режим частоты кадров : Постоянный
Частота кадров : 23,976 кадра/сек
Цветовое пространство : YUV
Субдискретизация насыщенности : 4:2:0
Битовая глубина : 8 бит
Тип развёртки : Прогрессивная
Бит/(Пиксели*Кадры) : 0.265
Размер потока : 3,77 Гбайт (77%)
Библиотека кодирования : x264 core 161 r3027 4121277
Настройки программы : cabac=1 / ref=5 / deblock=1:-3:-3 / analyse=0x3:0x133 / me=umh / subme=10 / psy=1 / psy_rd=1.00:0.00 / mixed_ref=1 / me_range=32 / chroma_me=1 / trellis=2 / 8x8dct=1 / cqm=0 / deadzone=21,11 / fast_pskip=0 / chroma_qp_offset=-2 / threads=27 / lookahead_threads=4 / sliced_threads=0 / nr=0 / decimate=0 / interlaced=0 / bluray_compat=0 / constrained_intra=0 / bframes=8 / b_pyramid=2 / b_adapt=2 / b_bias=0 / direct=3 / weightb=1 / open_gop=0 / weightp=2 / keyint=250 / keyint_min=23 / scenecut=40 / intra_refresh=0 / rc=crf / mbtree=0 / crf=16.0 / qcomp=0.60 / qpmin=0 / qpmax=69 / qpstep=4 / ip_ratio=1.30 / pb_ratio=1.20 / aq=3:0.80
Язык : English
Default : Да
Forced : Нет

Аудио #1
Идентификатор : 2
Формат : AC-3
Формат/Информация : Audio Coding 3
Коммерческое название : Dolby Digital
Идентификатор кодека : A_AC3
Продолжительность : 50 м. 45 с.
Вид битрейта : Постоянный
Битрейт : 640 Кбит/сек
Каналы : 6 каналов
Channel layout : L R C LFE Ls Rs
Частота : 48,0 КГц
Частота кадров : 31,250 кадров/сек (1536 SPF)
Битовая глубина : 16 бит
Метод сжатия : С потерями
Размер потока : 232 Мбайт (5%)
Заголовок : Dub
Язык : Russian
ServiceKind/String : Complete Main
Default : Да
Forced : Нет

Аудио #2
Идентификатор : 3
Формат : AC-3
Формат/Информация : Audio Coding 3
Коммерческое название : Dolby Digital
Идентификатор кодека : A_AC3
Продолжительность : 50 м. 45 с.
Вид битрейта : Постоянный
Битрейт : 384 Кбит/сек
Каналы : 6 каналов
Channel layout : L R C LFE Ls Rs
Частота : 48,0 КГц
Частота кадров : 31,250 кадров/сек (1536 SPF)
Битовая глубина : 16 бит
Метод сжатия : С потерями
Размер потока : 139 Мбайт (3%)
Заголовок : NewStudio
Язык : Russian
ServiceKind/String : Complete Main
Default : Нет
Forced : Нет

Аудио #3
Идентификатор : 4
Формат : AC-3
Формат/Информация : Audio Coding 3
Коммерческое название : Dolby Digital
Идентификатор кодека : A_AC3
Продолжительность : 50 м. 45 с.
Вид битрейта : Постоянный
Битрейт : 384 Кбит/сек
Каналы : 6 каналов
Channel layout : L R C LFE Ls Rs
Частота : 48,0 КГц
Частота кадров : 31,250 кадров/сек (1536 SPF)
Битовая глубина : 16 бит
Метод сжатия : С потерями
Размер потока : 139 Мбайт (3%)
Заголовок : AlexFilm
Язык : Russian
ServiceKind/String : Complete Main
Default : Нет
Forced : Нет

Аудио #4
Идентификатор : 5
Формат : AC-3
Формат/Информация : Audio Coding 3
Коммерческое название : Dolby Digital
Идентификатор кодека : A_AC3
Продолжительность : 50 м. 45 с.
Вид битрейта : Постоянный
Битрейт : 384 Кбит/сек
Каналы : 6 каналов
Channel layout : L R C LFE Ls Rs
Частота : 48,0 КГц
Частота кадров : 31,250 кадров/сек (1536 SPF)
Битовая глубина : 16 бит
Метод сжатия : С потерями
Размер потока : 139 Мбайт (3%)
Заголовок : HDRezka Studio
Язык : Russian
ServiceKind/String : Complete Main
Default : Нет
Forced : Нет

Аудио #5
Идентификатор : 6
Формат : AC-3
Формат/Информация : Audio Coding 3
Коммерческое название : Dolby Digital
Идентификатор кодека : A_AC3
Продолжительность : 50 м. 45 с.
Вид битрейта : Постоянный
Битрейт : 384 Кбит/сек
Каналы : 2 канала
Channel layout : L R
Частота : 48,0 КГц
Частота кадров : 31,250 кадров/сек (1536 SPF)
Битовая глубина : 16 бит
Метод сжатия : С потерями
Размер потока : 139 Мбайт (3%)
Заголовок : Lostfilm
Язык : Russian
ServiceKind/String : Complete Main
Default : Нет
Forced : Нет

Аудио #6
Идентификатор : 7
Формат : AC-3
Формат/Информация : Audio Coding 3
Коммерческое название : Dolby Digital
Идентификатор кодека : A_AC3
Продолжительность : 50 м. 45 с.
Вид битрейта : Постоянный
Битрейт : 640 Кбит/сек
Каналы : 6 каналов
Channel layout : L R C LFE Ls Rs
Частота : 48,0 КГц
Частота кадров : 31,250 кадров/сек (1536 SPF)
Битовая глубина : 16 бит
Метод сжатия : С потерями
Размер потока : 232 Мбайт (5%)
Язык : English
ServiceKind/String : Complete Main
Default : Нет
Forced : Нет

Текст #1
Идентификатор : 8
Формат : UTF-8
Идентификатор кодека : S_TEXT/UTF8
Идентификатор кодека/Информация : UTF-8 Plain Text
Заголовок : Forced
Язык : Russian
Default : Да
Forced : Да

Текст #2
Идентификатор : 9
Формат : UTF-8
Идентификатор кодека : S_TEXT/UTF8
Идентификатор кодека/Информация : UTF-8 Plain Text
Язык : Russian
Default : Нет
Forced : Нет

Текст #3
Идентификатор : 10
Формат : UTF-8
Идентификатор кодека : S_TEXT/UTF8
Идентификатор кодека/Информация : UTF-8 Plain Text
Язык : Ukrainian
Default : Нет
Forced : Нет

Текст #4
Идентификатор : 11
Формат : UTF-8
Идентификатор кодека : S_TEXT/UTF8
Идентификатор кодека/Информация : UTF-8 Plain Text
Заголовок : SDH
Язык : English
Default : Нет
Forced : Нет

Текст #5
Идентификатор : 12
Формат : UTF-8
Идентификатор кодека : S_TEXT/UTF8
Идентификатор кодека/Информация : UTF-8 Plain Text
Язык : German
Default : Нет
Forced : Нет

Текст #6
Идентификатор : 13
Формат : UTF-8
Идентификатор кодека : S_TEXT/UTF8
Идентификатор кодека/Информация : UTF-8 Plain Text
Язык : French
Default : Нет
Forced : Нет

Текст #7
Идентификатор : 14
Формат : UTF-8
Идентификатор кодека : S_TEXT/UTF8
Идентификатор кодека/Информация : UTF-8 Plain Text
Язык : Italian
Default : Нет
Forced : Нет

Текст #8
Идентификатор : 15
Формат : UTF-8
Идентификатор кодека : S_TEXT/UTF8
Идентификатор кодека/Информация : UTF-8 Plain Text
Язык : Spanish
Default : Нет
Forced : Нет

Текст #9
Идентификатор : 16
Формат : UTF-8
Идентификатор кодека : S_TEXT/UTF8
Идентификатор кодека/Информация : UTF-8 Plain Text
Язык : Dutch
Default : Нет
Forced : Нет

Текст #10
Идентификатор : 17
Формат : UTF-8
Идентификатор кодека : S_TEXT/UTF8
Идентификатор кодека/Информация : UTF-8 Plain Text
Язык : Portuguese
Default : Нет
Forced : Нет
скриншот  скриншот  скриншот  
piratbit.org



Скачать Тень и кость через торрент https://funkyimg.com/i/3bUJL.png Скачать фильм Тень и кость через торрент бесплантно в хорошем качестве Описание: По романам писательницы Ли Бардуго «Тень и Кость» и «Шестёрка воронов». В мире, разделённом на две части барьером вечной темноты, ... 8.8 10 13
Торрент: Зарегистрирован [2021-05-15 13:45] · скачан: 7 раз
Статус: √ проверено
Размер: 39.93 GB
Как cкачать? Как скачать Тень и кость через торрент | UTorrent



Последний раз редактировалось: killermax2013 (2021-05-15 13:45), всего редактировалось 1 раз

28-11-2019 20:33  

Отключить всю рекламу на сайте


04-05-2021 15:34 Тень и кость Скачать торрент  

С каждым сериалом "Нетфликс" славянская культура и история всё больше приближаются к нормальным цивилизованным тенденциям А так то сериал нормальный. Посмотреть можно.piratbit.org



    Дорогой пользователь! Огромная просьба, поблагодарите релизера, оцените раздачу и оставьте свои комментарий, если Вы скачали Тень и кость через торрент бесплатно! Внесите свою лепту в развитие PiratBit!
    Комментировать посты могут только пользователи прошедшие не сложную регистрацию
    Показать сообщения:    

    Тень и кость через торрент
    Скачать бесплатно Тень и кость
    Тень и кость скачать торрент
    Тень и кость смотреть онлайн
    Cкачать фильм Тень и кость бесплатно
    Тень и кость скачать торрент в хорошем качестве
    Тень и кость смотреть онлайн бесплатно в хорошем качестве


    Вы не можете начинать темы
    Вы не можете отвечать на сообщения
    Вы не можете редактировать свои сообщения
    Вы не можете удалять свои сообщения
    Вы не можете голосовать в опросах
    Вы не можете прикреплять файлы к сообщениям
    Вы можете скачивать файлы