Достать ножи: Стеклянная луковица

MVO

Добыча

Дубляж

Уэнсдэй

1 сезон

Тор

Дубляж

13 клиническая

1 сезон

Жестокая ночь

MVO

Одни из нас

1 сезон

Deluxe

pack

Рекомендуем

30

Пиратка

ВАЖНО

ВАЖНО

Ghostwire

Пиратка

jed

RePack

nioh2

RePack

RDR2

RePack

NEED FOR SPEED™ PAYBACK

RePack

скачать торрент

Кинопоиск HD

Острые козырьки 6 сезон

6 сезон

FAR CRY 6

RePack

скачать торрент

Лицензия

скачать торрент

MVO

1

1 сезон

скачать торрент

1 сезон

скачать торрент

Лицензия

  

Мортал Комбат / Mortal Kombat (Саймон Маккуойд) [2021, Боевик, фэнтези, фантастика, WEB-DL 2160p] Дубляж [Line]

Мортал Комбат через торрент piratbit.org

Раздают: 1 [ 0 KB/s ]
Размер: 14.57 GB | Добавлен: 1 год 9 мес. назад | Торрент скачан:963 раза
Смотреть онлайн | Скачать | Поддержите нас   

25-04-2021 07:02 Мортал Комбат Скачать торрент  

Мортал Комбат | Mortal Kombat
Год выпуска: 2021
Страна: Австралия, США
Студия: New Line Cinema, NetherRealm Studios, Atomic Monster
Жанр: Боевик, фэнтези, фантастика
Продолжительность: 01:50:01
Перевод: Дублированный | Line
Субтитры: Русские на китайскую речь (отдельно), Английские (вшитые на китайскую речь+SDH)

Режиссер: Саймон Маккуойд

rating

В ролях: Льюис Тан, Джо Таслим, Джессика МакНэми, Джош Лоусон, Мехкад Брукс, Матильда Кимбер, Лора Брент, Таданобу Асано, Хироюки Санада, Чинь Хань

Описание: Боец смешанных единоборств Коул Янг не раз соглашался проиграть за деньги. Он не знает о своем наследии и почему император Внешнего Мира Шан Цзун посылает своего лучшего воина, могущественного криомансера Саб-Зиро, на охоту за Коулом. Янг боится за безопасность своей семьи, и майор спецназа Джакс, обладатель такой же отметки в виде дракона, как и у Коула, советует ему отправиться на поиски Сони Блейд. Вскоре он оказывается в храме Лорда Рейдена, Старшего Бога и защитника Земного Царства, который дает убежище тем, кто носит метку. Здесь Коул тренируется с опытными воинами Лю Каном, Кун Лао и наемником-изгоем Кано, готовясь вместе с величайшими чемпионами Земли противостоять врагам из Внешнего Мира в битве за вселенную. Но сможет ли Коул приложить все усилия и раскрыть в себе аркану — могущественную силу его души, чтобы не только спасти свою семью, но и остановить Внешний Мир раз и навсегда?

Качество: WEB-DL 2160p
Формат: MKV

Видео: MPEG-H HEVC, HDR10, 17.9 Mбит/с, 3840x2160
Аудио 1: AC3, 2 ch, 256 Кбит/с | RUS | Tnx.KinoPub
Аудио 2: E-AC3+atmos, 6 ch, 768 Кбит/с | ENG
скриншот  скриншот  скриншот  скриншот  скриншот  

Общее
Уникальный идентификатор : 26546357719047928461283535382317985784 (0x13F8A47C7D35DC29756026086A656FF8)
Полное имя : C:DownloadsMortal Kombat_(2021)_WEB-DL_2160p_D_LineMortal.Kombat.2021.2160p_WEB-DL_Line.mkv
Формат : Matroska
Версия формата : Version 4
Размер файла : 14,6 Гбайт
Продолжительность : 1 ч. 50 м.
Общий поток : 19,0 Мбит/сек
Название фильма : Mortal.Kombat.2021.2160p_WEB-DL_Line
Дата кодирования : UTC 2021-04-24 14:50:02
Программа кодирования : mkvmerge v53.0.0 ('Fool's Gold') 64-bit
Библиотека кодирования : libebml v1.4.1 + libmatroska v1.6.2

Видео
Идентификатор : 1
Формат : HEVC
Формат/Информация : High Efficiency Video Coding
Профиль формата : Main 10@L5@Main
HDR format : SMPTE ST 2086, HDR10 compatible
Идентификатор кодека : V_MPEGH/ISO/HEVC
Продолжительность : 1 ч. 50 м.
Битрейт : 17,9 Мбит/сек
Ширина : 3 840 пикселей
Высота : 2 160 пикселей
Соотношение сторон : 16:9
Режим частоты кадров : Постоянный
Частота кадров : 23,976 (24000/1001) кадра/сек
Цветовое пространство : YUV
Субдискретизация насыщенности : 4:2:0
Битовая глубина : 10 бит
Бит/(Пиксели*Кадры) : 0.090
Размер потока : 13,8 Гбайт (95%)
Библиотека кодирования : x265 3.4hy:[Linux][GCC 7.5.0][64 bit] 10bit
Настройки программы : cpuid=1111039 / frame-threads=1 / wpp / no-pmode / no-pme / no-psnr / no-ssim / log-level=2 / input-csp=1 / input-res=3840x2160 / interlace=0 / total-frames=0 / level-idc=0 / high-tier=1 / uhd-bd=0 / ref=4 / no-allow-non-conformance / repeat-headers / annexb / no-aud / no-hrd / info / hash=0 / no-temporal-layers / no-open-gop / min-keyint=96 / keyint=96 / gop-lookahead=0 / bframes=3 / b-adapt=2 / b-pyramid / bframe-bias=0 / rc-lookahead=25 / lookahead-slices=4 / scenecut=40 / hist-scenecut=0 / radl=0 / no-splice / no-intra-refresh / ctu=64 / min-cu-size=8 / rect / no-amp / max-tu-size=32 / tu-inter-depth=1 / tu-intra-depth=1 / limit-tu=0 / rdoq-level=2 / dynamic-rd=0.00 / no-ssim-rd / signhide / no-tskip / nr-intra=0 / nr-inter=0 / no-constrained-intra / strong-intra-smoothing / max-merge=3 / limit-refs=3 / limit-modes / me=3 / subme=3 / merange=57 / temporal-mvp / no-frame-dup / no-hme / weightp / no-weightb / no-analyze-src-pics / deblock=0:0 / sao / no-sao-non-deblock / rd=4 / selective-sao=4 / no-early-skip / rskip / no-fast-intra / no-tskip-fast / no-cu-lossless / no-b-intra / no-splitrd-skip / rdpenalty=0 / psy-rd=2.00 / psy-rdoq=1.00 / no-rd-refine / no-lossless / cbqpoffs=0 / crqpoffs=0 / rc=abr / bitrate=18000 / qcomp=0.60 / qpstep=4 / stats-write=0 / stats-read=2 / cplxblur=20.0 / qblur=0.5 / vbv-maxrate=24500 / vbv-bufsize=24500 / vbv-init=0.6 / vbv-end=0.6 / vbv-end-fr-adj=0.0 / ipratio=1.40 / pbratio=1.30 / aq-mode=2 / aq-strength=1.00 / cutree / zone-count=0 / no-strict-cbr / qg-size=32 / no-rc-grain / qpmax=69 / qpmin=0 / no-const-vbv / sar=0 / overscan=0 / videoformat=5 / range=0 / colorprim=9 / transfer=16 / colormatrix=9 / chromaloc=0 / display-window=0 / master-display=G(13250,34500)B(7500,3000)R(34000,16000)WP(15635,16450)L(10000000,1) / cll=825,118 / min-luma=0 / max-luma=1023 / log2-max-poc-lsb=8 / vui-timing-info / vui-hrd-info / no-concatenation / slices=1 / no-opt-qp-pps / no-opt-ref-list-length-pps / no-multi-pass-opt-rps / scenecut-bias=0.05 / hist-threshold=0.01 / no-opt-cu-delta-qp / no-aq-motion / hdr10 / no-hdr10-opt / no-dhdr10-opt / no-idr-recovery-sei / analysis-reuse-level=0 / analysis-save-reuse-level=0 / analysis-load-reuse-level=0 / scale-factor=0 / refine-intra=0 / refine-inter=0 / refine-mv=1 / refine-ctu-distortion=0 / no-limit-sao / ctu-info=0 / no-lowpass-dct / refine-analysis-type=0 / copy-pic=1 / max-ausize-factor=1.0 / no-dynamic-refine / no-single-sei / no-hevc-aq / no-svt / no-field / qp-adaptation-range=1.00 / no-scenecut-aware-qpconformance-window-offsets / right=0 / bottom=0 / decoder-max-rate=0
Default : Да
Forced : Нет
Цветовой диапазон : Limited
Основные цвета : BT.2020
Характеристики трансфера : PQ
Коэффициенты матрицы : BT.2020 non-constant
Mastering display color primaries : Display P3
Mastering display luminance : min: 0.0001 cd/m2, max: 1000 cd/m2
Maximum Content Light Level : 825 cd/m2
Maximum Frame-Average Light Level : 118 cd/m2

Аудио #1
Идентификатор : 2
Формат : AC-3
Формат/Информация : Audio Coding 3
Коммерческое название : Dolby Digital
Идентификатор кодека : A_AC3
Продолжительность : 1 ч. 50 м.
Вид битрейта : Постоянный
Битрейт : 256 Кбит/сек
Каналы : 2 канала
Channel layout : L R
Частота : 48,0 КГц
Частота кадров : 31,250 кадров/сек (1536 SPF)
Метод сжатия : С потерями
Размер потока : 201 Мбайт (1%)
Заголовок : (Дубляж) Line | KinoPub
Язык : Russian
Service kind : Complete Main
Default : Да
Forced : Нет

Аудио #2
Идентификатор : 3
Формат : E-AC-3 JOC
Формат/Информация : Enhanced AC-3 with Joint Object Coding
Коммерческое название : Dolby Digital Plus with Dolby Atmos
Идентификатор кодека : A_EAC3
Продолжительность : 1 ч. 50 м.
Вид битрейта : Постоянный
Битрейт : 768 Кбит/сек
Каналы : 6 каналов
Channel layout : L R C LFE Ls Rs
Частота : 48,0 КГц
Частота кадров : 31,250 кадров/сек (1536 SPF)
Метод сжатия : С потерями
Размер потока : 604 Мбайт (4%)
Язык : English
Service kind : Complete Main
Default : Нет
Forced : Нет
Complexity index : 16
Number of dynamic objects : 15
Bed channel count : 1 канал
Bed channel configuration : LFE

Текст
Идентификатор : 4
Формат : UTF-8
Идентификатор кодека : S_TEXT/UTF8
Идентификатор кодека/Информация : UTF-8 Plain Text
Продолжительность : 1 ч. 41 м.
Битрейт : 43 бит/сек
Count of elements : 1352
Размер потока : 32,1 Кбайт (0%)
Заголовок : English
Язык : English
Default : Нет
Forced : Нет




Скачать Мортал Комбат через торрент https://b.radikal.ru/b16/2104/27/c4277094ed27.jpg Скачать, смотреть онлайн Мортал Комбат бесплантно в хорошем качестве Описание: Боец смешанных единоборств Коул Янг не раз соглашался проиграть за деньги. Он не знает о своем наследии и почему император ... 9.7 10 26
Info! Золотая раздача, скачанное не засчитывается.
Торрент: Зарегистрирован [2021-04-25 07:02] · скачан: 963 раз
Статус: T временная
Размер: 14.57 GB
Как cкачать? Как скачать Мортал Комбат через торрент | UTorrent

% Раздел Тема Автор DL S | L
Фильмы [HD 720p, 1080p] (Хороший звук DUB, MVO) [ 8.6 GB ] Мортал Комбат / Mortal Kombat | Пифагор | 1080p bober100 Скачать
2 | 0
Ultra HD (UHD: 2K, 4K, 8K) [ 51.53 GB ] Мортал Комбат / Mortal Kombat | Пифагор | 2160p bober100 Скачать
2 | 0
Фильмы [HD 720p, 1080p] (Хороший звук DUB, MVO) [ 5.22 GB ] Мортал Комбат / Mortal Kombat | Пифагор | 720p bober100 Скачать
1 | 0
Фильмы 2021 [DVDrip, WEB-DLRip, HDrip] (DUB, MVO) [ 2.18 GB ] Мортал Комбат / Mortal Kombat | HDRezka Studio | BDRip Twi7ter Скачать
3 | 0
Фильмы 2021 [DVDrip, WEB-DLRip, HDrip] (DUB, MVO) [ 2.13 GB ] Мортал Комбат / Mortal Kombat | КиноПоиск HD | BDRip Twi7ter Скачать
12 | 1
Фильмы (HD 720p, 1080p) (48-60 fps) [ 3.72 GB ] Мортал Комбат / Mortal Kombat | Дубляж | DLRip 720p / 60 FPS slaventi-69 Скачать
1 | 0
Фильмы 2021 [DVDrip, WEB-DLRip, HDrip] (DUB, MVO) [ 1.41 GB ] Мортал Комбат / Mortal Kombat | КиноПоиск HD | BDRip Twi7ter Скачать
20 | 1

28-11-2019 20:33  


Отключить вcю реклaмy на сайте, в т.ч. и в плеере онлайн просмотра!

26-04-2021 12:17 Мортал Комбат Скачать торрент  

блевотина редкостная, ничего даже близко похожего к оригиналу нет! снято на уровне ниже некуда! Зря потратил почти 2 часа,плюнул,сказал старый и показал сыну, тот в восторге!



29-04-2021 17:16 Мортал Комбат Скачать торрент  

очень не плохой фильм по игре, осбенно для любителей мк



01-05-2021 03:47 Мортал Комбат Скачать торрент  

Шикарный филь, нам с компанией зашел на 5+, на одном дыхании. Буду смотреть еще



01-05-2021 21:55 Мортал Комбат Скачать торрент  

только что вернулся из кинотеатра. честно, фильм на один раз. к сожалению.
лицуху, когда появится, скачаю. посмотреть дома.
жду вторую часть фильма, а она будет... инфа 100 ))))



08-05-2021 07:23 Мортал Комбат Скачать торрент  

stafadal писал(а):

BukerDevitt писал(а):

stafadal писал(а):

блевотина редкостная, ничего даже близко похожего к оригиналу нет! снято на уровне ниже некуда! Зря потратил почти 2 часа,плюнул,сказал старый и показал сыну, тот в восторге!

Это ты сплошная тупая блевотина

Е.б.а.л.ь.н.и.к прикрой марамойка диванная! Кнопочный герой с.у.к.а! в лицо то сможешь повторить?

блин неужели ты не понял что попал в яму с дерьмом и уже тониш в ней по шею . неужели тебе охота продолжать и попробывать на вкус



    Дорогой пользователь! Огромная просьба, поблагодарите релизера, оцените раздачу и оставьте свои комментарий, если Вы скачали Мортал Комбат через торрент бесплатно!!
    Комментировать посты могут только пользователи прошедшие не сложную регистрацию
    Показать сообщения:    


    Мортал Комбат через торрент
    Скачать бесплатно Мортал Комбат
    Мортал Комбат скачать торрент
    Мортал Комбат смотреть онлайн
    Cкачать фильм Мортал Комбат бесплатно
    Мортал Комбат скачать торрент в хорошем качестве
    Мортал Комбат смотреть онлайн бесплатно в хорошем качестве
    Вы не можете начинать темы
    Вы не можете отвечать на сообщения
    Вы не можете редактировать свои сообщения
    Вы не можете удалять свои сообщения
    Вы не можете голосовать в опросах
    Вы не можете прикреплять файлы к сообщениям
    Вы можете скачивать файлы
    Мортал Комбат / Mortal Kombat [2021, Боевик, фэнтези, фантастика, WEB-DL 2160p] Дубляж [Line] смотреть онлайн, скачать торрент picoco.icu