1 сезон

1 сезон

iTunes

1

iTunes

Кинопоиск HD

iTunes

13

1 сезон

RePack

30

Deluxe

ВАЖНО

ИГРА 18+

pack

RePack

MK11
pack

Легкие деньги

RePack

jed

RePack

fifa19

RePack

RDR2

RePack

NEED FOR SPEED™ PAYBACK

4 сезон

9 сезон

Бесстыжие 9 сезон

Все сериалы

все сериалы на PB.wtf

RePack

FAR CRY 5
  
Magnet ссылка

Бэтмен: Душа дракона / Batman: Soul of the Dragon (Сэм Лью) [2021, Мультфильм, боевик, криминал, приключения, BDRip 720p] DUB [iTunes] piratbit.org

Бэтмен: Душа дракона через торрент piratbit.org

Раздают: 8 [ 276 KB/s ]
Размер: 3.37 GB | Добавлен: 17 д. назад | Торрент скачан:100 раз
Скачать  

26-04-2021 03:13 Бэтмен: Душа дракона Скачать торрент  

Бэтмен: Душа дракона | Batman: Soul of the Dragon
Год выпуска: 2021
Страна: США
Студия: DC Comics, Warner Bros. Animation
Жанр: Мультфильм, боевик, криминал, приключения
Продолжительность: 01:22:41
Перевод: Дублированный | iTunes
Субтитры: Русские (Full), английские

Режиссер: Сэм Лью

rating

В ролях: Джейми Чунг, Келли Ху, Джеймс Хонг, Грей ДеЛайл, Марк Дакаскос, Майкл Джей Уайт, Дэвид Джунтоли, Робин Аткин Даунс, Джошуа Китон, Эрик Бауза, Крис Кокс

Описание: Новый мультфильм про знаменитого готэмского детектива в плаще и маске. Брюсу Уэйну предстоит встреча с неким крайне опасным врагом из своего прошлого, а помогать ему в этом нелегком деле будут три мастера единоборств и рукопашного боя, с которыми протагонист когда-то обучался ремеслу боевых искусств.

Качество: BDRip 720p
Формат: MKV

Видео: MPEG-4 AVC, 1280x720, 4816 Kbit/s, 23.976 fps
Аудио #01: 48 kHz, AC3, 5.1, 384 Kbps | iTunes | RUS |
Аудио #02: 48 kHz, AC3, 5.1, 640 Kbps | Оригинал | ENG |
скриншот  скриншот  скриншот  скриншот  скриншот  

General
Unique ID : 177120380273898075941330633054357361337 (0x854024F8415C35CCE9EC8952896D12B9)
Complete name : F:VideoBatman.Soul.of.the.Dragon.2021.BDRip.720p.seleZen.mkv
Format : Matroska
Format version : Version 4
File size : 3.37 GiB
Duration : 1 h 22 min
Overall bit rate : 5 842 kb/s
Movie name : Batman Soul of the Dragon 2021 from seleZen
Encoded date : UTC 2021-04-22 05:25:48
Writing application : mkvmerge v55.0.0 ('Waiting For Space') 64-bit
Writing library : libebml v1.4.2 + libmatroska v1.6.4

Video
ID : 1
Format : AVC
Format/Info : Advanced Video Codec
Format profile : High@L4.1
Format settings : CABAC / 9 Ref Frames
Format settings, CABAC : Yes
Format settings, Reference : 9 frames
Codec ID : V_MPEG4/ISO/AVC
Duration : 1 h 22 min
Bit rate : 4 816 kb/s
Width : 1 280 pixels
Height : 720 pixels
Display aspect ratio : 16:9
Frame rate mode : Constant
Frame rate : 23.976 (24000/1001) FPS
Color space : YUV
Chroma subsampling : 4:2:0
Bit depth : 8 bits
Scan type : Progressive
Bits/(Pixel*Frame) : 0.218
Stream size : 2.78 GiB (82%)
Title : MTeam
Writing library : x264 core 157 r2938 2b00a84 TnP@MTeam Mod
Encoding settings : cabac=1 / ref=9 / deblock=1:-3:-3 / analyse=0x3:0x133 / me=umh / subme=10 / psy=1 / psy_rd=1.05:0.00 / mixed_ref=1 / me_range=32 / chroma_me=1 / trellis=2 / 8x8dct=1 / cqm=0 / deadzone=21,11 / fast_pskip=0 / chroma_qp_offset=-2 / threads=12 / lookahead_threads=2 / sliced_threads=0 / nr=0 / decimate=0 / interlaced=0 / bluray_compat=0 / constrained_intra=0 / bframes=8 / b_pyramid=2 / b_adapt=2 / b_bias=0 / direct=3 / weightb=1 / open_gop=0 / weightp=2 / keyint=250 / keyint_min=24 / scenecut=40 / intra_refresh=0 / rc_lookahead=250 / rc=crf / mbtree=0 / crf=16.8 / qcomp=0.60 / qpmin=0 / qpmax=69 / qpstep=4 / vbv_maxrate=62500 / vbv_bufsize=78125 / crf_max=0.0 / nal_hrd=none / filler=0 / ip_ratio=1.30 / pb_ratio=1.20 / aq=3:0.80
Language : English
Default : Yes
Forced : No
Color range : Limited
Color primaries : BT.709
Matrix coefficients : BT.709

Audio #1
ID : 2
Format : AC-3
Format/Info : Audio Coding 3
Commercial name : Dolby Digital
Codec ID : A_AC3
Duration : 1 h 22 min
Bit rate mode : Constant
Bit rate : 384 kb/s
Channel(s) : 6 channels
Channel layout : L R C LFE Ls Rs
Sampling rate : 48.0 kHz
Frame rate : 31.250 FPS (1536 SPF)
Compression mode : Lossy
Stream size : 227 MiB (7%)
Title : Dub
Language : Russian
Service kind : Complete Main
Default : Yes
Forced : Yes

Audio #2
ID : 3
Format : AC-3
Format/Info : Audio Coding 3
Commercial name : Dolby Digital
Codec ID : A_AC3
Duration : 1 h 22 min
Bit rate mode : Constant
Bit rate : 640 kb/s
Channel(s) : 6 channels
Channel layout : L R C LFE Ls Rs
Sampling rate : 48.0 kHz
Frame rate : 31.250 FPS (1536 SPF)
Compression mode : Lossy
Stream size : 379 MiB (11%)
Title : Original
Language : English
Service kind : Complete Main
Default : No
Forced : No

Text #1
ID : 4
Format : UTF-8
Codec ID : S_TEXT/UTF8
Codec ID/Info : UTF-8 Plain Text
Duration : 1 h 19 min
Bit rate : 55 b/s
Count of elements : 834
Stream size : 32.3 KiB (0%)
Title : Full
Language : Russian
Default : No
Forced : No

Text #2
ID : 5
Format : UTF-8
Codec ID : S_TEXT/UTF8
Codec ID/Info : UTF-8 Plain Text
Duration : 1 h 19 min
Bit rate : 35 b/s
Count of elements : 791
Stream size : 20.6 KiB (0%)
Title : Full
Language : English
Default : No
Forced : No

Menu
00:00:00.000 : en:Chapter 01
00:05:18.902 : en:Chapter 02
00:12:03.222 : en:Chapter 03
00:19:55.569 : en:Chapter 04
00:26:51.735 : en:Chapter 05
00:31:52.577 : en:Chapter 06
00:38:59.587 : en:Chapter 07
00:46:00.132 : en:Chapter 08
00:52:09.335 : en:Chapter 09
01:00:06.311 : en:Chapter 10
01:08:15.675 : en:Chapter 11
01:14:33.344 : en:Chapter 12
01:20:04.383 : en:Chapter 13

piratbit.org



Скачать Бэтмен: Душа дракона через торрент https://i114.fastpic.ru/big/2021/0426/12/e812199be16a37d782a39a1c200fb112.jpg Скачать фильм Бэтмен: Душа дракона через торрент бесплантно в хорошем качестве Описание: Новый мультфильм про знаменитого готэмского детектива в плаще и маске. Брюсу Уэйну предстоит встреча с неким крайне опасным ... 10 10 4
Торрент: Зарегистрирован [2021-04-26 03:13] · скачан: 100 раз
Статус: √ проверено
Размер: 3.37 GB
Как cкачать? Как скачать Бэтмен: Душа дракона через торрент | UTorrent

% Раздел Тема Автор DL S | L
Ultra HD (UHD: 2K, 4K, 8K) [ 30.43 GB ] Бэтмен: Душа дракона / Batman: Soul of the Dragon [2021 Мультфильм UHD BDRemux 2160p] bober100 Скачать
2 | 0
Зарубежные Мультфильмы (BDRip 1080p, 720p, Blu-ray, BD-Remux) [ 8.36 GB ] Бэтмен: Душа дракона / Batman: Soul of the Dragon [2021 Мультфильм BDRip 1080p] bober100 Скачать
5 | 1

28-11-2019 20:33  

Отключить всю рекламу на сайте

    Дорогой пользователь! Огромная просьба, поблагодарите релизера, оцените раздачу и оставьте свои комментарий, если Вы скачали Бэтмен: Душа дракона через торрент бесплатно! Внесите свою лепту в развитие PiratBit!
    Комментировать посты могут только пользователи прошедшие не сложную регистрацию
    Показать сообщения:    

    Бэтмен: Душа дракона через торрент
    Скачать бесплатно Бэтмен: Душа дракона
    Бэтмен: Душа дракона скачать торрент
    Бэтмен: Душа дракона смотреть онлайн
    Cкачать фильм Бэтмен: Душа дракона бесплатно
    Бэтмен: Душа дракона скачать торрент в хорошем качестве
    Бэтмен: Душа дракона смотреть онлайн бесплатно в хорошем качестве


    Вы не можете начинать темы
    Вы не можете отвечать на сообщения
    Вы не можете редактировать свои сообщения
    Вы не можете удалять свои сообщения
    Вы не можете голосовать в опросах
    Вы не можете прикреплять файлы к сообщениям
    Вы можете скачивать файлы