1 сезон

1 сезон

iTunes

1

iTunes

Кинопоиск HD

iTunes

13

1 сезон

RePack

30

GLOBAL

ВАЖНО

ИГРА 18+

pack

RePack

MK11
pack

Легкие деньги

RePack

jed

RePack

fifa19

RePack

RDR2

RePack

NEED FOR SPEED™ PAYBACK

4 сезон

9 сезон

Бесстыжие 9 сезон

Все сериалы

все сериалы на PB.wtf

RePack

FAR CRY 5
  
Magnet ссылка

После Чернобыля (Игорь Кинько, Максим Литвинов) [2021, Ужасы, триллер, детектив, WEB-DL 1080p] [iTunes] piratbit.org

После Чернобыля через торрент piratbit.org

Раздают: 14 [ 241 KB/s ]
Размер: 4.64 GB | Добавлен: 18 д. назад | Торрент скачан:258 раз
Скачать  

27-04-2021 06:19 После Чернобыля Скачать торрент  

После Чернобыля
Год выпуска: 2021
Страна: Россия, Украина, США
Студия: Nikolaus Geyrhalter Filmproduktion
Жанр: Ужасы, триллер, детектив
Продолжительность: 01:20:50
Перевод: Не требуется | iTunes
Субтитры: отсутствуют

Режиссер: Игорь Кинько, Максим Литвинов

rating

В ролях: Катрин Бадалян, Владимир Дыховичный, Майкл Гул, Иван Ивашкин, Татьяна Семенюк, Ростислав Гулбис, Диана Барыбина, Татьяна Корнета, Роберт Фишман, Марк Барыбин

Описание: Путешествуя по Восточной Европе, группа американских туристов случайным образом попадает в мёртвый город Припять. Зона отчуждения оказывается не такой уж и заброшенной. Её нынешние обитатели начинают преследовать ребят, перед которыми встает задача выяснить: кто или что продолжает жить там, где якобы жизни нет.

Качество: WEB-DL 1080p
Формат: MKV

Видео: MPEG-4 (AVC), 1920х1080 (16:9), 25 fps, ~ 7838 kbps, 0.151 bit/pixel
Аудио: AC3, 48 kHz, 6 ch, ~384.00 kbps avg | русский | iTunes
скриншот  скриншот  скриншот  скриншот  скриншот  

General
Unique ID : 27130213337878389559732770008316856573 (0x146916CA70E0915F2E7EEF3D524548FD)
Complete name : Posle.Chernobilya.2021.1080p.WEB-DL.DD5.1.H.264-EniaHD.mkv
Format : Matroska
Format version : Version 4
File size : 4.64 GiB
Duration : 1 h 20 min
Overall bit rate : 8 224 kb/s
Encoded date : UTC 2021-04-26 20:34:34
Writing application : mkvmerge v56.1.0 ('My Friend') 64-bit
Writing library : libebml v1.4.2 + libmatroska v1.6.4

Video
ID : 1
Format : AVC
Format/Info : Advanced Video Codec
Format profile : High@L4
Format settings : CABAC / 2 Ref Frames
Format settings, CABAC : Yes
Format settings, Reference frames : 2 frames
Codec ID : V_MPEG4/ISO/AVC
Duration : 1 h 20 min
Bit rate : 7 838 kb/s
Width : 1 920 pixels
Height : 1 080 pixels
Display aspect ratio : 16:9
Frame rate mode : Constant
Frame rate : 25.000 FPS
Color space : YUV
Chroma subsampling : 4:2:0
Bit depth : 8 bits
Scan type : Progressive
Bits/(Pixel*Frame) : 0.151
Stream size : 4.43 GiB (95%)
Default : Yes
Forced : No
Color range : Limited
Color primaries : BT.709
Transfer characteristics : BT.709
Matrix coefficients : BT.709

Audio
ID : 2
Format : AC-3
Format/Info : Audio Coding 3
Commercial name : Dolby Digital
Codec ID : A_AC3
Duration : 1 h 20 min
Bit rate mode : Constant
Bit rate : 384 kb/s
Channel(s) : 6 channels
Channel layout : L R C LFE Ls Rs
Sampling rate : 48.0 kHz
Frame rate : 31.250 FPS (1536 SPF)
Compression mode : Lossy
Stream size : 222 MiB (5%)
Language : Russian
Service kind : Complete Main
Default : Yes
Forced : No

Menu
00:00:00.000 : Глава 1
00:08:45.200 : Глава 2
00:16:18.360 : Глава 3
00:23:59.840 : Глава 4
00:30:33.400 : Глава 5
00:37:29.080 : Глава 6
00:43:53.600 : Глава 7
00:49:18.640 : Глава 8
00:55:11.360 : Глава 9
01:01:45.840 : Глава 10
01:08:43.280 : Глава 11

piratbit.org



Скачать После Чернобыля через торрент https://i114.fastpic.ru/big/2021/0427/0c/b85b081149a942d0600efd6fc4b36e0c.jpg Скачать фильм После Чернобыля через торрент бесплантно в хорошем качестве Описание: Путешествуя по Восточной Европе, группа американских туристов случайным образом попадает в мёртвый город Припять. Зона отчуждения ... 10 10 13
Торрент: Зарегистрирован [2021-04-27 06:19] · скачан: 258 раз
Статус: √ проверено
Размер: 4.64 GB
Как cкачать? Как скачать После Чернобыля через торрент | UTorrent

% Раздел Тема Автор DL S | L
Наши новые фильмы 2020 - 2021 [ 1.46 GB ] После Чернобыля [2021 WEB-DLRip] bober100 Скачать
5 | 0
Discovery [ 2.27 GB ] Discovery. Чернобыль: жизнь после / Life Аfter: Сhernobyl [2014 Документальный HDTV ] Бумер Скачать
1 | 0
Discovery [ 1.27 GB ] Discovery. Чернобыль: жизнь после / Life Аfter: Сhernobyl [2014 Документальный HDTVRip ] Бумер Скачать
1 | 0
Документальные фильмы и телепередачи [ 615 MB ] Чернобыль. До и после [2016 Документальный SATRip Оригинальный] schultz Скачать
1 | 0
Научно-популярные фильмы [ 510 MB ] Чернобыль. 20 лет после жизни / Chernobyl. 20 years after the life [2006 Документальный TVRip одноголосый] Grizzly93rus Скачать
1 | 0

28-11-2019 20:33  

Отключить всю рекламу на сайте

27-04-2021 12:30 После Чернобыля Скачать торрент  

На фоне этого шедевра,мортал комбат 21 выглядит гораздо симпатичнее....piratbit.org



29-04-2021 08:26 После Чернобыля Скачать торрент  

Александр1300 писал(а):

На фоне этого шедевра,мортал комбат 21 выглядит гораздо симпатичнее....

Мортал недалеко от данного шедевра ушёл.Тоже шляпа,даже по сравнению с 95 годом!piratbit.org



30-04-2021 10:20 После Чернобыля Скачать торрент  

ZaebaZzz писал(а):

Александр1300 писал(а):

На фоне этого шедевра,мортал комбат 21 выглядит гораздо симпатичнее....

Мортал недалеко от данного шедевра ушёл.Тоже шляпа,даже по сравнению с 95 годом!

От куда же такие оценки! На плечах сериала в "Рай" въехать захотели!piratbit.org



02-05-2021 07:01 После Чернобыля Скачать торрент  

ну зачем опять эти дешевые сьемки трясущейся камерой телефона.ну ведь выяснили уже у зрителя..,что не нравится ему такая дешевая театральная отсебятина без бюджета и сценария.,помотал чутка да и удалил к чертям собачим.piratbit.org



    Дорогой пользователь! Огромная просьба, поблагодарите релизера, оцените раздачу и оставьте свои комментарий, если Вы скачали После Чернобыля через торрент бесплатно! Внесите свою лепту в развитие PiratBit!
    Комментировать посты могут только пользователи прошедшие не сложную регистрацию
    Показать сообщения:    

    После Чернобыля через торрент
    Скачать бесплатно После Чернобыля
    После Чернобыля скачать торрент
    После Чернобыля смотреть онлайн
    Cкачать фильм После Чернобыля бесплатно
    После Чернобыля скачать торрент в хорошем качестве
    После Чернобыля смотреть онлайн бесплатно в хорошем качестве


    Вы не можете начинать темы
    Вы не можете отвечать на сообщения
    Вы не можете редактировать свои сообщения
    Вы не можете удалять свои сообщения
    Вы не можете голосовать в опросах
    Вы не можете прикреплять файлы к сообщениям
    Вы можете скачивать файлы