1 сезон

1 сезон

iTunes

1

iTunes

Кинопоиск HD

iTunes

13

1 сезон

RePack

30

Deluxe

ВАЖНО

ИГРА 18+

pack

RePack

MK11
pack

Легкие деньги

RePack

jed

RePack

fifa19

RePack

RDR2

RePack

NEED FOR SPEED™ PAYBACK

4 сезон

9 сезон

Бесстыжие 9 сезон

Все сериалы

все сериалы на PB.wtf

RePack

FAR CRY 5
  
Magnet ссылка

Выбивая долги / The Tax Collector (Дэвид Эйр) [2020 г., криминал, боевик, HDRip, Дубляж "iTunes"] piratbit.org

Выбивая долги через торрент piratbit.org

Раздают: 5 [ 0 KB/s ]
Размер: 720 MB | Добавлен: 15 д. назад | Торрент скачан:17 раз
Скачать  

27-04-2021 18:40 Выбивая долги Скачать торрент  

Выбивая долги / The Tax Collector
Год выпуска: 2020
Страна: США / Cedar Park Entertainment, Cross Creek Pictures, Faster Horse Pictures
Жанр: криминал, боевик
Продолжительность: 01:35:15
Перевод: Дубляж (iTunes)
«Банды Лос-Анджелеса против наркокартеля»
Субтитры: русские форсированные – вшитые

Режиссер: Дэвид Эйр

rating

В ролях: Шайа ЛаБаф, Бобби Сото, Синтия Кармона, Хосе Конехо Мартин, Чейен Рэй Эрнандес, Кле Слоун, Ричард Мескита, Джордж Лопес, Брайан Мартин Ортега, Аалайя Лопес

Описание: Выбивая черный нал из должников, два коллектора перешли дорогу главе наркокартеля, практикующему шаманство. Спровоцировав конфликт между двумя бандами, который может обернуться кровавой бойней, коллекторы поставили под угрозу жизни своих семей.

Качество: HDRip
Формат: AVI
Видео кодек: DivX
Аудио кодек: MP3
Видео: 640x344 (1.86:1), 24.000 fps, DivX Codec 4.x ~918 kbps avg, 0.17 bit/pixel
Аудио: 48 kHz, MPEG Layer 3, 2 ch, ~128.00 kbps avg








Общее
Полное имя : G:\ФИЛЬМЫ\Выбивая долги.2020.iD.HDRip.avi
Формат : AVI
Формат/Информация : Audio Video Interleave
Размер файла : 720 Мбайт
Продолжительность : 1 ч. 35 м.
Общий поток : 1 056 Кбит/сек
Программа кодирования : VirtualDubMod 1.5.10.3 | www.virtualdub-fr.org || (build 2550/release)
Библиотека кодирования : VirtualDubMod build 2550/release

Видео
Идентификатор : 0
Формат : MPEG-4 Visual
Профиль формата : Advanced Simple@L5
Настройки формата : BVOP2
Параметр BVOP формата : 2
Параметр QPel формата : Нет
Параметр GMC формата : Без точки перехода
Параметр матрицы формата : Default (MPEG)
Идентификатор кодека : DIVX
Идентификатор кодека/Информация : Project Mayo
Идентификатор кодека/Подсказка : DivX 4
Продолжительность : 1 ч. 35 м.
Битрейт : 919 Кбит/сек
Ширина : 640 пикселей
Высота : 344 пикселя
Соотношение сторон : 1,85:1
Частота кадров : 24,000 кадра/сек
Цветовое пространство : YUV
Субдискретизация насыщенности : 4:2:0
Битовая глубина : 8 бит
Тип развёртки : Прогрессивная
Метод сжатия : С потерями
Бит/(Пиксели*Кадры) : 0.174
Размер потока : 626 Мбайт (87%)
Библиотека кодирования : XviD 1.2.1 (UTC 2008-12-04)

Аудио
Идентификатор : 1
Формат : MPEG Audio
Версия формата : Version 1
Профиль формата : Layer 3
Настройки формата : Joint stereo
Идентификатор кодека : 55
Идентификатор кодека/Подсказка : MP3
Продолжительность : 1 ч. 35 м.
Вид битрейта : Постоянный
Битрейт : 128 Кбит/сек
Каналы : 2 канала
Частота : 48,0 КГц
Частота кадров : 41,667 кадра/сек (1152 SPF)
Метод сжатия : С потерями
Размер потока : 87,2 Мбайт (12%)
Выравнивание : Соединение по промежуткам
Продолжительность промежутка : 42 мс. (1,00 видеокадр)
Время предзагрузки промежутка : 504 мс.
Библиотека кодирования : LAME3.99r
Настройки программы : -m j -V 4 -q 2 -lowpass 17 -b 128

Report created by : MediaInfoLib - v21.03
Report created on : UTC 2021-04-27 18:27:59

piratbit.org



Скачать Выбивая долги через торрент https://pic1.kartinco.top/new/img/2021-04/27/lb7snjo9go5pmq8wiog7bp1l1.jpg Скачать фильм Выбивая долги через торрент бесплантно в хорошем качестве Описание: Выбивая черный нал из должников, два коллектора перешли дорогу главе наркокартеля, практикующему шаманство. Спровоцировав ... 5.5 10 2
Торрент: Зарегистрирован [2021-04-27 18:40] · скачан: 17 раз
Статус: √ проверено
Размер: 720 MB
Как cкачать? Как скачать Выбивая долги через торрент | UTorrent

% Раздел Тема Автор DL S | L
Фильмы [HD 720p, 1080p] (Хороший звук DUB, MVO) [ 8.59 GB ] Выбивая долги / The Tax Collector [2020 BDRip 1080p] +MVO [HDRezka Studio] bober100 Скачать
8 | 0
Фильмы 2019-2020 [DVDrip, WEB-DLRip, HDrip] (DUB, MVO) [ 2.43 GB ] Выбивая долги / The Tax Collector [2020 BDRip-AVC] +MVO [HDRezka Studio] bober100 Скачать
2 | 0
Фильмы 2019-2020 [DVDrip, WEB-DLRip, HDrip] (DUB, MVO) [ 1.41 GB ] Выбивая долги / The Tax Collector [2020 BDRip-AVC] bober100 Скачать
10 | 0
Фильмы [HD 720p, 1080p] (Хороший звук DUB, MVO) [ 4.81 GB ] Выбивая долги / The Tax Collector [2020 BDRip 720p] +MVO [HDRezka Studio] bober100 Скачать
4 | 0
Фильмы (Blu-ray, BD-Remux, HDDVD) [ 16.73 GB ] Выбивая долги / The Tax Collector [2020 BD Remux 1080p] +MVO [HDRezka Studio] bober100 Скачать
1 | 0
Фильмы 2019-2020 [DVDrip, WEB-DLRip, HDrip] (DUB, MVO) [ 744 MB ] Выбивая долги / The Tax Collector [2020 WEB-DLRip] MVO [HDRezka Studio] bober100 Скачать
1 | 0
Фильмы 2019-2020 [DVDrip, WEB-DLRip, HDrip] (DUB, MVO) [ 1.46 GB ] Выбивая долги / The Tax Collector [2020 BDRip] MVO [HDRezka Studio] bober100 Скачать
2 | 0

28-11-2019 20:33  

Отключить всю рекламу на сайте

    Дорогой пользователь! Огромная просьба, поблагодарите релизера, оцените раздачу и оставьте свои комментарий, если Вы скачали Выбивая долги через торрент бесплатно! Внесите свою лепту в развитие PiratBit!
    Комментировать посты могут только пользователи прошедшие не сложную регистрацию
    Показать сообщения:    

    Выбивая долги через торрент
    Скачать бесплатно Выбивая долги
    Выбивая долги скачать торрент
    Выбивая долги смотреть онлайн
    Cкачать фильм Выбивая долги бесплатно
    Выбивая долги скачать торрент в хорошем качестве
    Выбивая долги смотреть онлайн бесплатно в хорошем качестве


    Вы не можете начинать темы
    Вы не можете отвечать на сообщения
    Вы не можете редактировать свои сообщения
    Вы не можете удалять свои сообщения
    Вы не можете голосовать в опросах
    Вы не можете прикреплять файлы к сообщениям
    Вы можете скачивать файлы