1 сезон

1 сезон

iTunes

1

iTunes

Кинопоиск HD

iTunes

13

1 сезон

RePack

30

Deluxe

ВАЖНО

ИГРА 18+

pack

RePack

MK11
pack

Легкие деньги

RePack

jed

RePack

fifa19

RePack

RDR2

RePack

NEED FOR SPEED™ PAYBACK

4 сезон

9 сезон

Бесстыжие 9 сезон

Все сериалы

все сериалы на PB.wtf

RePack

FAR CRY 5
  
Magnet ссылка

Любовь, свадьбы и прочие катастрофы / Love, Weddings & Other Disasters (Деннис Дуган) [2020 г., мелодрама, комедия, HDRip, Дубляж "iTunes"] piratbit.org

Любовь, свадьбы и прочие катастрофы через торрент piratbit.org

Раздают: 2 [ 0 KB/s ]
Размер: 726 MB | Добавлен: 17 д. назад | Торрент скачан:16 раз
Скачать  

28-04-2021 18:14 Любовь, свадьбы и прочие катастрофы Скачать торрент  

Любовь свадьбы и прочие катастрофы / Love Weddings & Other Disasters
Год выпуска: 2020
Страна: США / Align, Construction Film, Convergent Media
Жанр: мелодрама, комедия
Продолжительность: 01:36:35
Перевод: Дубляж (iTunes)

Режиссер: Деннис Дуган

rating

В ролях: Мэгги Грэйс, Дайан Китон, Джереми Айронс, Диего Бонета, Деннис Дуган, Тодд Стэшвик, Джесси МакКартни, Чандра Уэст, Эндрю Бэчелор, Вероника Феррес

Описание: Они занимаются организацией идеальных свадеб и разрушением неидеальных союзов. Они делают людей счастливыми, но их жизнь далека от совершенства. Они так близки к чужому счастью, но как им найти свое? Случайности судьбы и настоящая любовь, реальное, чудесное и невозможное сплетаются в романтический узор в судьбах влюбленных пар разных возрастов, характеров и профессий.

Качество: HDRip
Формат: AVI
Видео кодек: DivX
Аудио кодек: MP3
Видео: 640x344 (1.86:1), 23.976 fps, DivX Codec 4.x ~912 kbps avg, 0.17 bit/pixel
Аудио: 48 kHz, MPEG Layer 3, 2 ch, ~128.00 kbps avg








Общее
Полное имя : G:\ФИЛЬМЫ\Любовь, свадьбы и прочие катастрофы.2020.D.HDRip.avi
Формат : AVI
Формат/Информация : Audio Video Interleave
Размер файла : 726 Мбайт
Продолжительность : 1 ч. 36 м.
Общий поток : 1 050 Кбит/сек
Программа кодирования : VirtualDubMod 1.5.10.3 | www.virtualdub-fr.org || (build 2550/release)
Библиотека кодирования : VirtualDubMod build 2550/release

Видео
Идентификатор : 0
Формат : MPEG-4 Visual
Профиль формата : Advanced Simple@L5
Настройки формата : BVOP2
Параметр BVOP формата : 2
Параметр QPel формата : Нет
Параметр GMC формата : Без точки перехода
Параметр матрицы формата : Default (MPEG)
Идентификатор кодека : DIVX
Идентификатор кодека/Информация : Project Mayo
Идентификатор кодека/Подсказка : DivX 4
Продолжительность : 1 ч. 36 м.
Битрейт : 913 Кбит/сек
Ширина : 640 пикселей
Высота : 344 пикселя
Соотношение сторон : 1,85:1
Частота кадров : 23,976 (24000/1001) кадра/сек
Цветовое пространство : YUV
Субдискретизация насыщенности : 4:2:0
Битовая глубина : 8 бит
Тип развёртки : Прогрессивная
Метод сжатия : С потерями
Бит/(Пиксели*Кадры) : 0.173
Размер потока : 631 Мбайт (87%)
Библиотека кодирования : XviD 1.2.1 (UTC 2008-12-04)

Аудио
Идентификатор : 1
Формат : MPEG Audio
Версия формата : Version 1
Профиль формата : Layer 3
Настройки формата : Joint stereo
Идентификатор кодека : 55
Идентификатор кодека/Подсказка : MP3
Продолжительность : 1 ч. 36 м.
Вид битрейта : Постоянный
Битрейт : 128 Кбит/сек
Каналы : 2 канала
Частота : 48,0 КГц
Частота кадров : 41,667 кадра/сек (1152 SPF)
Метод сжатия : С потерями
Размер потока : 88,4 Мбайт (12%)
Выравнивание : Соединение по промежуткам
Продолжительность промежутка : 42 мс. (1,00 видеокадр)
Время предзагрузки промежутка : 504 мс.
Библиотека кодирования : LAME3.99r
Настройки программы : -m j -V 4 -q 2 -lowpass 17 -b 128

Report created by : MediaInfoLib - v21.03
Report created on : UTC 2021-04-28 17:52:49

piratbit.org



Скачать Любовь, свадьбы и прочие катастрофы через торрент https://pic1.kartinco.top/new/img/2021-04/28/6ih8h3b51nv3alaqvs83986a1.jpg Скачать фильм Любовь, свадьбы и прочие катастрофы через торрент бесплантно в хорошем качестве Описание: Они занимаются организацией идеальных свадеб и разрушением неидеальных союзов. Они делают людей счастливыми, но их жизнь далека ... 10 10 2
Торрент: Зарегистрирован [2021-04-28 18:14] · скачан: 16 раз
Статус: √ проверено
Размер: 726 MB
Как cкачать? Как скачать Любовь, свадьбы и прочие катастрофы через торрент | UTorrent

28-11-2019 20:33  

Отключить всю рекламу на сайте

    Дорогой пользователь! Огромная просьба, поблагодарите релизера, оцените раздачу и оставьте свои комментарий, если Вы скачали Любовь, свадьбы и прочие катастрофы через торрент бесплатно! Внесите свою лепту в развитие PiratBit!
    Комментировать посты могут только пользователи прошедшие не сложную регистрацию
    Показать сообщения:    

    Любовь, свадьбы и прочие катастрофы через торрент
    Скачать бесплатно Любовь, свадьбы и прочие катастрофы
    Любовь, свадьбы и прочие катастрофы скачать торрент
    Любовь, свадьбы и прочие катастрофы смотреть онлайн
    Cкачать фильм Любовь, свадьбы и прочие катастрофы бесплатно
    Любовь, свадьбы и прочие катастрофы скачать торрент в хорошем качестве
    Любовь, свадьбы и прочие катастрофы смотреть онлайн бесплатно в хорошем качестве


    Вы не можете начинать темы
    Вы не можете отвечать на сообщения
    Вы не можете редактировать свои сообщения
    Вы не можете удалять свои сообщения
    Вы не можете голосовать в опросах
    Вы не можете прикреплять файлы к сообщениям
    Вы можете скачивать файлы