Всегда рабочее зеркало без VPN и Proxy просто перед .vidak.icu напиши любое слово или цифру, Пример http://4pre.vidak.icu

MVO

MVO

1 сезон

1

1 сезон

iTunes

1 сезон

13

1 сезон

Deluxe

pack

Рекомендуем

Repack

30

ВАЖНО

RePack

MK11

RePack

jed

RePack

fifa19

RePack

RDR2

RePack

NEED FOR SPEED™ PAYBACK

Кинопоиск HD

6 сезон

 Острые козырьки 6 сезон

Все сериалы

все сериалы на PB.wtf

RePack

FAR CRY 5
  
Magnet ссылка

Хитмэн / Hitman (Ксавьер Генс) [2007 г., боевик, триллер, драма, криминал, Open Matte, BDRip - HEVC 1080p 10 bit 60 FPS, DUB] piratbit.org

Хитмэн через торрент piratbit.org

Раздают: 1 [ 0 KB/s ]
Размер: 3.59 GB | Добавлен: 1 год 3 мес. назад | Торрент скачан:94 раза
Смотреть онлайн Хитмэн | Скачать    Ребята, помогите собрать деньги на оплату серверов!!!

28-04-2021 18:32 Хитмэн Скачать торрент  

Hitman
«Говорят, он один смертный грех»


Год выпуска: 2007
Страна: США, Франция
Жанр: боевик, триллер, драма, криминал

Продолжительность: 01:34:13
Перевод: Профессиональный | iTunes
Субтитры: русские

Режиссер: Ксавьер Генс / Xavier Gens

В ролях: Тимоти Олифант (Agent 47), Дюгрэй Скотт (Mike Whittier), Ольга Куриленко (Nika Boronina), Роберт Неппер (Yuri Marklov), Ульрих Томсен (Mikhail Belicoff), Генри Йен Кьюсик (Udre Belicoff), Михаэль Оффей (Jenkins), Кристиан Эриксон (General Kormarov), Эрик Эбони (Bwana Ovie), Джо Шеридан (Captain Gudnayev), Джеймс Фолкнер (Smith Jamison), Жан-Марк Беллу (Hitman #2)

Описание: Хитмэн был обучен, как высоко профессиональный убийца, чье самое мощное оружие — это хладнокровие и безмерная гордость за свою работу. 47 — это две последние цифры на штрихкоде, вытатуированном на его затылке, а также его единственное имя.

Но охотник становится добычей, когда 47-й оказывается втянутым в политические интриги. Интерпол и русские военные начинают охоту на киллера по всей восточной Европе, в то время как он сам пытается понять, кто его подставил и почему они пытаются вывести его из игры. Но самую большую угрозу для 47-го представляет волнение его совести и незнакомые эмоции, пробудившиеся в нем после встречи с прекрасной девушкой…

Мировая премьера: 21 ноября 2007


Качество: BDRip 1080p by DD2D3
Формат: MKV
Видео кодек: V_MPEGH/ISO/HEVC
Аудио кодек: AC3
Видео: V_MPEGH/ISO/HEVC; 1920x1080 (16:9); 5005 Kbps; 59,940 fps; 0,040 bpp
Аудио: русский; AC3; 448 Kbps; CBR; 6 ch
Навигация по главам: нет



Общее
Уникальный идентификатор : 195946400551732194259373809762947578001 (0x9369E76E9FE6C1A3B344DE6C797C3891)
Полное имя : D:\Hitman (2007) [Open Matte] BDRip - HEVC 1080p 10 bit 60 FPS.mkv
Формат : Matroska
Версия формата : Version 4
Размер файла : 3,59 Гбайт
Продолжительность : 1 ч. 34 м.
Общий поток : 5 457 Кбит/сек
Название фильма : Rip by from DD2D3
Дата кодирования : UTC 2021-04-28 16:22:47
Программа кодирования : mkvmerge v10.0.0 ('To Drown In You') 32bit
Библиотека кодирования : libebml v1.3.4 + libmatroska v1.4.5
Attachments : poster

Видео
Идентификатор : 1
Формат : HEVC
Формат/Информация : High Efficiency Video Coding
Профиль формата : Main 10@L4.1@Main
Идентификатор кодека : V_MPEGH/ISO/HEVC
Продолжительность : 1 ч. 34 м.
Битрейт : 5 005 Кбит/сек
Ширина : 1 920 пикселей
Высота : 1 080 пикселей
Соотношение сторон : 16:9
Режим частоты кадров : Постоянный
Частота кадров : 59,940 (60000/1001) кадров/сек
Цветовое пространство : YUV
Субдискретизация насыщенности : 4:2:0
Битовая глубина : 10 бит
Бит/(Пиксели*Кадры) : 0.040
Размер потока : 3,29 Гбайт (92%)
Библиотека кодирования : x265 2.3+33-0b7d54dbb71a87a0:[Windows][MSVC 1800][64 bit] 10bit: KG7x [x265.ru]
Настройки программы : cpuid=1173503 / frame-threads=2 / numa-pools=4 / wpp / no-pmode / no-pme / no-psnr / no-ssim / log-level=2 / input-csp=1 / input-res=1920x1080 / interlace=0 / total-frames=338728 / level-idc=41 / high-tier=1 / uhd-bd=0 / ref=3 / no-allow-non-conformance / no-repeat-headers / annexb / no-aud / no-hrd / info / hash=0 / no-temporal-layers / open-gop / min-keyint=25 / keyint=250 / bframes=4 / b-adapt=2 / b-pyramid / bframe-bias=0 / rc-lookahead=20 / lookahead-slices=6 / scenecut=40 / no-intra-refresh / ctu=64 / min-cu-size=8 / no-rect / no-amp / max-tu-size=32 / tu-inter-depth=1 / tu-intra-depth=1 / limit-tu=0 / rdoq-level=0 / dynamic-rd=0.00 / no-ssim-rd / signhide / no-tskip / nr-intra=0 / nr-inter=0 / no-constrained-intra / strong-intra-smoothing / max-merge=2 / limit-refs=3 / no-limit-modes / me=1 / subme=2 / merange=57 / temporal-mvp / weightp / no-weightb / no-analyze-src-pics / deblock=0:0 / sao / no-sao-non-deblock / rd=3 / no-early-skip / rskip / no-fast-intra / no-tskip-fast / no-cu-lossless / no-b-intra / rdpenalty=0 / psy-rd=2.00 / psy-rdoq=0.00 / no-rd-refine / analysis-mode=0 / no-lossless / cbqpoffs=0 / crqpoffs=0 / rc=abr / bitrate=5000 / qcomp=0.60 / qpstep=4 / stats-write=0 / stats-read=2 / cplxblur=20.0 / qblur=0.5 / ipratio=1.40 / pbratio=1.30 / aq-mode=1 / aq-strength=1.00 / cutree / zone-count=0 / no-strict-cbr / qg-size=32 / no-rc-grain / qpmax=69 / qpmin=0 / sar=1 / overscan=0 / videoformat=5 / range=0 / colorprim=2 / transfer=2 / colormatrix=2 / chromaloc=0 / display-window=0 / max-cll=0,0 / min-luma=0 / max-luma=1023 / log2-max-poc-lsb=8 / vui-timing-info / vui-hrd-info / slices=1 / opt-qp-pps / opt-ref-list-length-pps / no-multi-pass-opt-rps / scenecut-bias=0.05 / no-opt-cu-delta-qp / no-aq-motion / no-hdr / no-hdr-opt / refine-level=5 / no-limit-sao
Default : Да
Forced : Нет

Аудио
Идентификатор : 2
Формат : AC-3
Формат/Информация : Audio Coding 3
Коммерческое название : Dolby Digital
Идентификатор кодека : A_AC3
Продолжительность : 1 ч. 34 м.
Вид битрейта : Постоянный
Битрейт : 448 Кбит/сек
Каналы : 6 каналов
Channel layout : L R C LFE Ls Rs
Частота : 48,0 КГц
Частота кадров : 31,250 кадров/сек (1536 SPF)
Метод сжатия : С потерями
Размер потока : 302 Мбайт (8%)
Заголовок : DUB
Язык : Russian
Service kind : Complete Main
Default : Да
Forced : Нет

Текст
Идентификатор : 3
Формат : UTF-8
Идентификатор кодека : S_TEXT/UTF8
Идентификатор кодека/Информация : UTF-8 Plain Text
Продолжительность : 1 ч. 29 м.
Битрейт : 62 бит/сек
Count of elements : 647
Размер потока : 41,1 Кбайт (0%)
Заголовок : full
Язык : Russian
Default : Нет
Forced : Нет


скриншот  скриншот  скриншот  скриншот  


piratbit.org



Скачать Хитмэн через торрент https://funkyimg.com/i/3bW3E.jpg Скачать, смотреть онлайн Хитмэн бесплантно в хорошем качестве Описание: Хитмэн был обучен, как высоко убийца, чье самое мощное оружие — это хладнокровие и безмерная гордость за свою ... 10 10 7
Info! Золотая раздача, скачанное не засчитывается.
Торрент: Зарегистрирован [2021-04-28 18:32] · скачан: 94 раз
Статус: √ проверено
Размер: 3.59 GB
Как cкачать? Как скачать Хитмэн через торрент | UTorrent

% Раздел Тема Автор DL S | L
Азиатские фильмы [ 1.46 GB ] Джун - наёмный убийца / Хитмэн / Hitman: Agent Jun / Hiteumaen [2020 WEB-DLRip-AVC] DVO sokol_ok Скачать
2 | 0
Фильмы [HD 720p, 1080p] (Хороший звук DUB, MVO) [ 6.79 GB ] Хитмэн / Hitman [2007 BDRip-HEVC 1080p] DUB + MVO + AVO | Unrated RealOldGamer Скачать
1 | 0
Азиатские фильмы [ 749 MB ] Джун - наёмный убийца / Хитмэн / Hitman: Agent Jun / Hiteumaen [2020 WEB-DLRip-AVC] DVO sokol_ok Скачать
2 | 0
Азиатские фильмы [ 4.27 GB ] Джун - наёмный убийца / Хитмэн / Hitman: Agent Jun / Hiteumaen [2020 WEB-DL 1080p] DVO sokol_ok Скачать
2 | 0
Азиатские фильмы [ 2.12 GB ] Джун - наёмный убийца / Хитмэн / Hitman: Agent Jun / Hiteumaen [2020 WEB-DLRip-AVC] DVO sokol_ok Скачать
2 | 0
Ultra HD (UHD: 2K, 4K, 8K) — видео сверхвысокой чёткости [ 39.04 GB ] Хитмэн: Агент 47 / Hitman: Agent 47 [2015 UHD Blu-ray 2160p] DUB sheker187 Скачать
1 | 0
Ultra HD (UHD: 2K, 4K, 8K) — видео сверхвысокой чёткости [ 34.65 GB ] Хитмэн: Агент 47 / Hitman: Agent 47 [2015 UHD BDRemux 2160p] DUB [] bober100 Скачать
1 | 0

28-11-2019 20:33  

Отключить вcю реклaмy на сайте

28-04-2021 21:11 Хитмэн Скачать торрент  


Большое Спасибо dd2d3!!!
Как всегда помогу с раздачей!
Спасибо Друг, что ты есть!

Best Regards, Your V&S!
piratbit.org



    Дорогой пользователь! Огромная просьба, поблагодарите релизера, оцените раздачу и оставьте свои комментарий, если Вы скачали Хитмэн через торрент бесплатно!
    Комментировать посты могут только пользователи прошедшие не сложную регистрацию
    Показать сообщения:    

    Хитмэн через торрент
    Скачать бесплатно Хитмэн
    Хитмэн скачать торрент
    Хитмэн смотреть онлайн
    Cкачать фильм Хитмэн бесплатно
    Хитмэн скачать торрент в хорошем качестве
    Хитмэн смотреть онлайн бесплатно в хорошем качестве


    Вы не можете начинать темы
    Вы не можете отвечать на сообщения
    Вы не можете редактировать свои сообщения
    Вы не можете удалять свои сообщения
    Вы не можете голосовать в опросах
    Вы не можете прикреплять файлы к сообщениям
    Вы можете скачивать файлы