1 сезон

1 сезон

iTunes

1

iTunes

Кинопоиск HD

iTunes

13

1 сезон

RePack

30

Deluxe

ВАЖНО

ИГРА 18+

pack

RePack

MK11
pack

Легкие деньги

RePack

jed

RePack

fifa19

RePack

RDR2

RePack

NEED FOR SPEED™ PAYBACK

4 сезон

9 сезон

Бесстыжие 9 сезон

Все сериалы

все сериалы на PB.wtf

RePack

FAR CRY 5
  
Magnet ссылка

Увиденное и услышанное / Things Heard & Seen (Шари Спрингер Берман, Роберт Пульчини) [2021, ужасы, триллер, драма, WEB-DL 1080p] [Dub] (Невафильм) piratbit.org

Увиденное и услышанное через торрент piratbit.org

Раздают: 14 [ 885 KB/s ]
Размер: 6.26 GB | Добавлен: 13 д. назад | Торрент скачан:120 раз
Скачать  

30-04-2021 11:52 Увиденное и услышанное Скачать торрент  

Увиденное и услышанное / Things Heard & Seen
Год выпуска: 2021
Страна: США
Жанр: ужасы, триллер, драма
Продолжительность: 02:01:27
Перевод: Профессиональный (дублированный) | Невафильм

Субтитры: Русские (Forced, Full), английские (SDH), немецкие, испанские, французкие, итальянские, португальские, румынские, украинские

Режиссер: Шари Спрингер Берман / Shari Springer Berman, Роберт Пульчини / Robert Pulcini
В ролях: Аманда Сайфред, Джеймс Нортон, Наталия Дайер, Рэй Сихорн, Карен Аллен, Ф. Мюррэй Абрахам, Майкл О’Киф, Джеймс Урбаняк, Алекс Нюстадтер, Джек Гор

Описание: Литературной основой фильма стал роман Элизабет Брандейдж. Главная героиня — молодая женщина по имени Кэтрин, которая вслед за мужем переселяется из Нью-Йорка в маленький американский городок. Супруги поселяются на старой ферме с мрачной историей, где начинают происходить странные вещи. Кэтрин нужно разобраться, кто для неё опаснее — местные призраки или собственный муж.

rating

Качество: WEB-DL 1080p
Контейнер: MKV
Видео: AVC, 1920x1080 (16:9), 23.976 fps, ~5966 kbps
Аудио №1: E-AC3, 48 kHz, 6 ch, 640 kbps
Аудио №2: E-AC3 ATMOS, 48 kHz, 6 ch, 768 kbps
Формат субтитров: softsub (SRT)
General
Unique ID : 278111506976392601498109710242578963360 (0xD13A53F2551A0FCCB9C84DB1334C1BA0)
Complete name : Things.Heard.and.Seen.2021.1080p.NF.WEB-DL.DDP5.1.x264-EniaHD.mkv
Format : Matroska
Format version : Version 4
File size : 6.26 GiB
Duration : 2 h 1 min
Overall bit rate mode : Variable
Overall bit rate : 7 376 kb/s
Movie name : Things Heard & Seen (2021) - EniaHD
Writing application : mkvmerge v56.1.0 ('My Friend') 64-bit
Writing library : libebml v1.4.2 + libmatroska v1.6.4

Video
ID : 1
Format : AVC
Format/Info : Advanced Video Codec
Format profile : High@L4
Format settings : CABAC / 4 Ref Frames
Format settings, CABAC : Yes
Format settings, Reference fra : 4 frames
Codec ID : V_MPEG4/ISO/AVC
Duration : 2 h 1 min
Bit rate mode : Variable
Bit rate : 5 966 kb/s
Maximum bit rate : 20.0 Mb/s
Width : 1 920 pixels
Height : 1 080 pixels
Display aspect ratio : 16:9
Frame rate mode : Constant
Frame rate : 23.976 (24000/1001) FPS
Color space : YUV
Chroma subsampling : 4:2:0
Bit depth : 8 bits
Scan type : Progressive
Bits/(Pixel*Frame) : 0.120
Stream size : 5.06 GiB (81%)
Writing library : x264 core 148 r2722 1b0121b
Encoding settings : cabac=1 / ref=4 / deblock=1:0:0 / analyse=0x3:0x111 / me=umh / subme=10 / psy=1 / psy_rd=1.00:0.00 / mixed_ref=1 / me_range=120 / chroma_me=1 / trellis=2 / 8x8dct=1 / cqm=0 / deadzone=21,11 / fast_pskip=1 / chroma_qp_offset=-2 / threads=6 / lookahead_threads=1 / sliced_threads=0 / nr=0 / decimate=1 / interlaced=0 / bluray_compat=0 / stitchable=1 / constrained_intra=0 / bframes=16 / b_pyramid=2 / b_adapt=2 / b_bias=0 / direct=3 / weightb=1 / open_gop=0 / weightp=2 / keyint=240 / keyint_min=121 / scenecut=0 / intra_refresh=0 / rc_lookahead=240 / rc=crf / mbtree=1 / crf=16.0 / qcomp=0.50 / qpmin=6 / qpmax=51 / qpstep=4 / vbv_maxrate=20000 / vbv_bufsize=25000 / crf_max=0.0 / nal_hrd=vbr / filler=0 / ip_ratio=1.40 / aq=1:0.80
Default : Yes
Forced : No

Audio #1
ID : 2
Format : E-AC-3
Format/Info : Enhanced AC-3
Commercial name : Dolby Digital Plus
Codec ID : A_EAC3
Duration : 2 h 1 min
Bit rate mode : Constant
Bit rate : 640 kb/s
Channel(s) : 6 channels
Channel layout : L R C LFE Ls Rs
Sampling rate : 48.0 kHz
Frame rate : 31.250 FPS (1536 SPF)
Compression mode : Lossy
Stream size : 556 MiB (9%)
Language : Russian
Service kind : Complete Main
Default : Yes
Forced : No

Audio #2
ID : 3
Format : E-AC-3 JOC
Format/Info : Enhanced AC-3 with Joint Object Coding
Commercial name : Dolby Digital Plus with Dolby Atmos
Codec ID : A_EAC3
Duration : 2 h 1 min
Bit rate mode : Constant
Bit rate : 768 kb/s
Channel(s) : 6 channels
Channel layout : L R C LFE Ls Rs
Sampling rate : 48.0 kHz
Frame rate : 31.250 FPS (1536 SPF)
Compression mode : Lossy
Stream size : 667 MiB (10%)
Language : English
Service kind : Complete Main
Default : No
Forced : No
Complexity index : 16
Number of dynamic objects : 15
Bed channel count : 1 channel
Bed channel configuration : LFE

Text #1
ID : 4
Format : UTF-8
Codec ID : S_TEXT/UTF8
Codec ID/Info : UTF-8 Plain Text
Duration : 1 h 59 min
Bit rate : 1 b/s
Count of elements : 34
Stream size : 1.67 KiB (0%)
Title : Forced
Language : Russian
Default : Yes
Forced : No

Text #2
ID : 5
Format : UTF-8
Codec ID : S_TEXT/UTF8
Codec ID/Info : UTF-8 Plain Text
Duration : 1 h 59 min
Bit rate : 82 b/s
Count of elements : 1379
Stream size : 72.1 KiB (0%)
Language : Russian
Default : No
Forced : No

Text #3
ID : 6
Format : UTF-8
Codec ID : S_TEXT/UTF8
Codec ID/Info : UTF-8 Plain Text
Duration : 1 h 57 min
Bit rate : 64 b/s
Count of elements : 1755
Stream size : 55.4 KiB (0%)
Title : SDH
Language : English
Default : No
Forced : No

Text #4
ID : 7
Format : UTF-8
Codec ID : S_TEXT/UTF8
Codec ID/Info : UTF-8 Plain Text
Duration : 1 h 59 min
Bit rate : 48 b/s
Count of elements : 1320
Stream size : 42.8 KiB (0%)
Language : German
Default : No
Forced : No

Text #5
ID : 8
Format : UTF-8
Codec ID : S_TEXT/UTF8
Codec ID/Info : UTF-8 Plain Text
Duration : 1 h 54 min
Bit rate : 50 b/s
Count of elements : 1331
Stream size : 42.1 KiB (0%)
Language : Spanish
Default : No
Forced : No

Text #6
ID : 9
Format : UTF-8
Codec ID : S_TEXT/UTF8
Codec ID/Info : UTF-8 Plain Text
Duration : 1 h 59 min
Bit rate : 47 b/s
Count of elements : 1292
Stream size : 41.3 KiB (0%)
Language : French
Default : No
Forced : No

Text #7
ID : 10
Format : UTF-8
Codec ID : S_TEXT/UTF8
Codec ID/Info : UTF-8 Plain Text
Duration : 1 h 59 min
Bit rate : 49 b/s
Count of elements : 1289
Stream size : 43.2 KiB (0%)
Language : Italian
Default : No
Forced : No

Text #8
ID : 11
Format : UTF-8
Codec ID : S_TEXT/UTF8
Codec ID/Info : UTF-8 Plain Text
Duration : 1 h 59 min
Bit rate : 48 b/s
Count of elements : 1358
Stream size : 42.6 KiB (0%)
Title : Brazilian
Language : Portuguese
Default : No
Forced : No

Text #9
ID : 12
Format : UTF-8
Codec ID : S_TEXT/UTF8
Codec ID/Info : UTF-8 Plain Text
Duration : 1 h 53 min
Bit rate : 46 b/s
Count of elements : 1283
Stream size : 38.8 KiB (0%)
Language : Romanian
Default : No
Forced : No

Text #10
ID : 13
Format : UTF-8
Codec ID : S_TEXT/UTF8
Codec ID/Info : UTF-8 Plain Text
Duration : 1 h 59 min
Bit rate : 76 b/s
Count of elements : 1366
Stream size : 66.8 KiB (0%)
Language : Ukrainian
Default : No
Forced : No
скриншот  скриншот  скриншот  
piratbit.org



Скачать Увиденное и услышанное через торрент https://i5.imageban.ru/out/2021/04/29/2744ecba1be6d8a2c828348e420096ce.jpg Скачать фильм Увиденное и услышанное через торрент бесплантно в хорошем качестве Описание: Литературной основой фильма стал роман Элизабет Брандейдж. Главная героиня — молодая женщина по имени Кэтрин, которая вслед за ... 9.6 10 5
Торрент: Зарегистрирован [2021-04-30 11:52] · скачан: 120 раз
Статус: √ проверено
Размер: 6.26 GB
Как cкачать? Как скачать Увиденное и услышанное через торрент | UTorrent

28-11-2019 20:33  

Отключить всю рекламу на сайте

    Дорогой пользователь! Огромная просьба, поблагодарите релизера, оцените раздачу и оставьте свои комментарий, если Вы скачали Увиденное и услышанное через торрент бесплатно! Внесите свою лепту в развитие PiratBit!
    Комментировать посты могут только пользователи прошедшие не сложную регистрацию
    Показать сообщения:    

    Увиденное и услышанное через торрент
    Скачать бесплатно Увиденное и услышанное
    Увиденное и услышанное скачать торрент
    Увиденное и услышанное смотреть онлайн
    Cкачать фильм Увиденное и услышанное бесплатно
    Увиденное и услышанное скачать торрент в хорошем качестве
    Увиденное и услышанное смотреть онлайн бесплатно в хорошем качестве


    Вы не можете начинать темы
    Вы не можете отвечать на сообщения
    Вы не можете редактировать свои сообщения
    Вы не можете удалять свои сообщения
    Вы не можете голосовать в опросах
    Вы не можете прикреплять файлы к сообщениям
    Вы можете скачивать файлы