1 сезон

1 сезон

iTunes

1

iTunes

Кинопоиск HD

iTunes

13

1 сезон

RePack

30

Deluxe

ВАЖНО

ИГРА 18+

pack

RePack

MK11
pack

Легкие деньги

RePack

jed

RePack

fifa19

RePack

RDR2

RePack

NEED FOR SPEED™ PAYBACK

4 сезон

9 сезон

Бесстыжие 9 сезон

Все сериалы

все сериалы на PB.wtf

RePack

FAR CRY 5
  
Magnet ссылка

Радиовспышка / Radioflash (Бен Макферсон) [2019, Фантастика, боевик, триллер, драма, BDRip 1080 [DUB] [iTunes] piratbit.org

Радиовспышка через торрент piratbit.org

Раздают: 14 [ 424 KB/s ]
Размер: 11.66 GB | Добавлен: 13 д. назад | Торрент скачан:161 раз
Скачать  

30-04-2021 14:12 Радиовспышка Скачать торрент  

Радиовспышка / Radioflash Год выхода: 2019
Жанр: Фантастика, боевик, триллер, драма
Страна: США
Студия: IFC Mednight, Dark Coast Pictures, American Dream Labs, Decipher Entertainment, Radioflash Film
Продолжительность: 01:42:33
Перевод: Дублированный | iTunes

Режиссер: Бен Макферсон

В ролях: Брайтон Шарбино, Доминик Монаган, Уилл Пэттон, Фионнула Флэнаган, Майлз Андерсон, Майкл Филиппович, Кайл Коллин, Шон Кук, Арден Майрин, Макс Адлер, Джерри Башам, Лэнс Валентайн Батлер, Джули Эриксон, Шоун Ло

О фильме: Самые разнообразные виртуальные квесты Риз преодолевал без особых усилий. Произошел блэкаут, причем он носил всеобщий характер. Девушке доводится лицом к лицу встретиться не просто с неприглядной реальностью, а жестокой. Все приборы работавшие от электросети и гаджеты, что требовали зарядки от оной становятся абсолютно бесполезными. Интернет и телефонная связь также отсутствуют. Люди принимаются сражаться за ресурсы. Власти же не предпринимают никаких попыток урегулировать ситуацию. Риз вместе с отцом отправляется в деревенскую местность, где живет дедушка, известный выживальщик. Путь отцу и дочери предстоит долгий и опасный.

rating

Качество: BDRip 1080p
Формат: MKV
Видео: MPEG-4 AVC, 1920x804, 15.3 Mbit/s, 23.976 fps
Аудио #01: 48 kHz, AC3, 5.1, 384 Kbps | iTunes | RUS |
Аудио #02: 48 kHz, AC3, 5.1, 640 Kbps | Оригинал | ENG |
Субтитры: Английские
скриншот  скриншот  скриншот  
General

Unique ID : 55411276390362468219637602671547700895 (0x29AFD2DA71AD258EA0952C85B27CD69F)

Complete name : F:VideoRadioflash.2019.BDRip.1080p.seleZen.mkv

Format : Matroska

Format version : Version 4

File size : 11.7 GiB

Duration : 1 h 42 min

Overall bit rate : 16.3 Mb/s

Movie name : Radioflash 2019 from seleZen

Encoded date : UTC 2021-04-30 13:49:34

Writing application : mkvmerge v55.0.0 ('Waiting For Space') 64-bit

Writing library : libebml v1.4.2 + libmatroska v1.6.4

Video

ID : 1

Format : AVC

Format/Info : Advanced Video Codec

Format profile : High@L4.1

Format settings : CABAC / 5 Ref Frames

Format settings, CABAC : Yes

Format settings, Reference : 5 frames

Codec ID : V_MPEG4/ISO/AVC

Duration : 1 h 42 min

Bit rate : 15.3 Mb/s

Width : 1 920 pixels

Height : 804 pixels

Display aspect ratio : 2.40:1

Frame rate mode : Constant

Frame rate : 23.976 (24000/1001) FPS

Color space : YUV

Chroma subsampling : 4:2:0

Bit depth : 8 bits

Scan type : Progressive

Bits/(Pixel*Frame) : 0.412

Stream size : 10.9 GiB (94%)

Title : playHD

Writing library : x264 core 159 r2991 1771b55

Encoding settings : cabac=1 / ref=5 / deblock=1:-3:-3 / analyse=0x3:0x133 / me=umh / subme=10 / psy=1 / psy_rd=1.00:0.00 / mixed_ref=1 / me_range=32 / chroma_me=1 / trellis=2 / 8x8dct=1 / cqm=0 / deadzone=21,11 / fast_pskip=0 / chroma_qp_offset=-2 / threads=48 / lookahead_threads=6 / sliced_threads=0 / nr=0 / decimate=0 / interlaced=0 / bluray_compat=0 / constrained_intra=0 / bframes=8 / b_pyramid=2 / b_adapt=2 / b_bias=0 / direct=3 / weightb=1 / open_gop=0 / weightp=2 / keyint=250 / keyint_min=23 / scenecut=40 / intra_refresh=0 / rc_lookahead=60 / rc=crf / mbtree=0 / crf=15.5 / qcomp=0.65 / qpmin=0 / qpmax=69 / qpstep=4 / vbv_maxrate=62500 / vbv_bufsize=78125 / crf_max=0.0 / nal_hrd=none / filler=0 / ip_ratio=1.35 / pb_ratio=1.25 / aq=3:0.80 / zones=31989,32078,crf=13.5/47517,47684,crf=13/142728,147540,b=0.7

Language : English

Default : Yes

Forced : No

Audio #1

ID : 2

Format : AC-3

Format/Info : Audio Coding 3

Commercial name : Dolby Digital

Codec ID : A_AC3

Duration : 1 h 42 min

Bit rate mode : Constant

Bit rate : 384 kb/s

Channel(s) : 6 channels

Channel layout : L R C LFE Ls Rs

Sampling rate : 48.0 kHz

Frame rate : 31.250 FPS (1536 SPF)

Compression mode : Lossy

Stream size : 281 MiB (2%)

Title : iTunes

Language : Russian

Service kind : Complete Main

Default : Yes

Forced : Yes

Audio #2

ID : 3

Format : AC-3

Format/Info : Audio Coding 3

Commercial name : Dolby Digital

Codec ID : A_AC3

Duration : 1 h 42 min

Bit rate mode : Constant

Bit rate : 640 kb/s

Channel(s) : 6 channels

Channel layout : L R C LFE Ls Rs

Sampling rate : 48.0 kHz

Frame rate : 31.250 FPS (1536 SPF)

Compression mode : Lossy

Stream size : 470 MiB (4%)

Title : Original

Language : English

Service kind : Complete Main

Default : No

Forced : No

Text #1

ID : 4

Format : UTF-8

Codec ID : S_TEXT/UTF8

Codec ID/Info : UTF-8 Plain Text

Duration : 1 h 40 min

Bit rate : 33 b/s

Count of elements : 1025

Stream size : 24.3 KiB (0%)

Title : Full

Language : English

Default : No

Forced : No

Text #2

ID : 5

Format : UTF-8

Codec ID : S_TEXT/UTF8

Codec ID/Info : UTF-8 Plain Text

Duration : 1 h 42 min

Bit rate : 37 b/s

Count of elements : 1212

Stream size : 28.0 KiB (0%)

Title : SDH

Language : English

Default : No

Forced : No

Menu

00:00:00.000 : en:00:00:00.000

00:07:23.735 : en:00:07:23.735

00:14:37.085 : en:00:14:37.085

00:24:35.140 : en:00:24:35.140

00:33:04.900 : en:00:33:04.900

00:39:34.455 : en:00:39:34.455

00:47:51.869 : en:00:47:51.869

00:57:27.235 : en:00:57:27.235

01:06:22.145 : en:01:06:22.145

01:14:36.389 : en:01:14:36.389

01:23:04.521 : en:01:23:04.521

01:30:34.095 : en:01:30:34.095
Релиз: Присоединяйся к:

piratbit.org



Скачать Радиовспышка через торрент https://a.radikal.ru/a39/2104/37/76abb0ded037.jpg Скачать фильм Радиовспышка через торрент бесплантно в хорошем качестве О фильме: Самые разнообразные виртуальные квесты Риз преодолевал без особых усилий. Произошел блэкаут, причем он носил всеобщий характер. ... 9.1 10 12
Торрент: Зарегистрирован [2021-04-30 14:12] · скачан: 161 раз
Статус: √ проверено
Размер: 11.66 GB
Как cкачать? Как скачать Радиовспышка через торрент | UTorrent

% Раздел Тема Автор DL S | L
Фильмы 2019-2020 [DVDrip, WEB-DLRip, HDrip] (DUB, MVO) [ 1.46 GB ] Радиовспышка / Radioflash [2019 BDRip] () Леонид Ильич Скачать
22 | 0

28-11-2019 20:33  

Отключить всю рекламу на сайте

    Дорогой пользователь! Огромная просьба, поблагодарите релизера, оцените раздачу и оставьте свои комментарий, если Вы скачали Радиовспышка через торрент бесплатно! Внесите свою лепту в развитие PiratBit!
    Комментировать посты могут только пользователи прошедшие не сложную регистрацию
    Показать сообщения:    

    Радиовспышка через торрент
    Скачать бесплатно Радиовспышка
    Радиовспышка скачать торрент
    Радиовспышка смотреть онлайн
    Cкачать фильм Радиовспышка бесплатно
    Радиовспышка скачать торрент в хорошем качестве
    Радиовспышка смотреть онлайн бесплатно в хорошем качестве


    Вы не можете начинать темы
    Вы не можете отвечать на сообщения
    Вы не можете редактировать свои сообщения
    Вы не можете удалять свои сообщения
    Вы не можете голосовать в опросах
    Вы не можете прикреплять файлы к сообщениям
    Вы можете скачивать файлы