1 сезон

1 сезон

iTunes

1

iTunes

Кинопоиск HD

iTunes

13

1 сезон

RePack

30

Deluxe

ВАЖНО

ИГРА 18+

pack

RePack

MK11
pack

Легкие деньги

RePack

jed

RePack

fifa19

RePack

RDR2

RePack

NEED FOR SPEED™ PAYBACK

4 сезон

9 сезон

Бесстыжие 9 сезон

Все сериалы

все сериалы на PB.wtf

RePack

FAR CRY 5
  
Magnet ссылка

Кровавый четверг / Thursday (Скип Вудс) [1995, боевик, триллер, драма, комедия, BDRip-HEVC 1080p] MVO + 2хDVO + 6xAVO | GER Transfer piratbit.org

Кровавый четверг через торрент piratbit.org

Раздают: 6 [ 0 KB/s ]
Размер: 9.12 GB | Добавлен: 12 д. назад | Торрент скачан:92 раза
Скачать  

01-05-2021 08:13 Кровавый четверг Скачать торрент  

Название: Кровавый четверг
Оригинальное название: Thursday
Год производства: 1998
Жанр: боевик, триллер, драма, комедия
Режиссер: Скип Вудс
В ролях: Томас Джейн, Аарон Экхарт, Паулина Поризкова, Джеймс ЛеГрос, Пола Маршалл, Майкл Джитер, Гленн Пламмер, Микки Рурк, Люк Хари, Бари К. Уиллерфорд

О фильме: Бывший торговец наркотиками, прошедший через все круги ада, решает выйти на пенсию и забыть о своём тёмном прошлом. Переехав из Лос-Анджелеса в Хьюстон, он резко меняет свой имидж и в глазах окружающих становится обыкновенным гражданином, которого трудно заподозрить в чём-либо криминальном. Однако судьба готовит очередной, самый неожиданный сюрприз бывшему наркодилеру. В город приезжает его подельник с грузом героина. Компаньон и не думал забывать о своём партнёре всё то время, пока тот строил свою новую жизнь. Он предлагает ему последнюю сделку. За всё однажды приходится платить, и бывший наркоделец оказывается на волосок от смерти.



Страна: США
Студия: PolyGram Filmed Entertainment, Propaganda Films
Продолжительность: 01:27:47
Перевод: многоголосый профессиональный, двухголосый профессиональный, авторский

Качество: BDRip-HEVC 1080p
Кодек: HEVC (x265)
Видео: 1920x1040 (1.85:1), 10,2 Мбит/сек, HEVC (Main10@L.4.1@High) 10 бит
Звук:
Аудио1: AC3, 6 ch, 448 Kbps - Русский, Многоголосый (R5)
Аудио2: AC3, 6 ch, 384 Kbps - Русский, Двухголосый (HTB+)
Аудио3: AC3, 6 ch, 640 Kbps - Русский, Авторский (Юрий Сербин)
Аудио4: AC3, 6 ch, 640 Kbps - Русский, Авторский (Юрий Живов)
Аудио5: AC3, 6 ch, 640 Kbps - Русский, Авторский (Дмитрий Пучков (ранний))
Аудио6: AC3, 6 ch, 448 Kbps - Русский, Авторский (Дмитрий Пучков (поздний))
Аудио7: AC3, 6 ch, 448 Kbps - Русский, Авторский (Михаил Яроцкий)
Аудио8: AC3, 2 ch, 192 Kbps - Русский, Авторский (Сергей Визгунов)
Аудио9: AC3, 2 ch, 192 Kbps - Украинский, Двухголосый (1+1)
Аудио10: AC3, 6 ch, 640 Kbps - English, Original
Субтитры: Русские полные (SRT, SDH без цензуры), English full (SRT, SDH)
Навигация по главам: Есть

x265 [info]: frame I: 547, Avg QP:17.99 kb/s: 21729.38
x265 [info]: frame P: 21125, Avg QP:18.93 kb/s: 17043.37
x265 [info]: frame B: 104632, Avg QP:21.31 kb/s: 8749.95
x265 [info]: Weighted P-Frames: Y:14.6% UV:6.5%
x265 [info]: Weighted B-Frames: Y:8.6% UV:3.0%
x265 [info]: consecutive B-frames: 1.5% 1.9% 3.8% 15.8% 11.5% 43.5% 8.1% 7.7% 2.2% 1.2% 0.7% 0.9% 0.3% 0.3% 0.4%
x265 [info]: encoded 126304 frames in 104371.66s (1.21 fps), 10193.28 kb/s, Avg QP:20.89
Общее
Уникальный идентификатор : 322242580169723930363344091753548494546 (0xF26DA9D7E5245E93EF9562D16B7236D2)
Полное имя : \\.\Кровавый.четверг.Thursday.1998.Director's.Cut.GER.Transfer.BDRip-HEVC.1080p.mkv
Формат : Matroska
Версия формата : Version 4
Размер файла : 9,12 Гбайт
Продолжительность : 1 ч. 27 м.
Общий поток : 14,9 Мбит/сек
Название фильма : Кровавый.четверг.Thursday.1998.Director's.Cut.GER.Transfer.BDRip-HEVC.1080p
Дата кодирования : UTC 2021-05-01 07:21:58
Программа кодирования : mkvmerge v56.1.0 ('My Friend') 64-bit
Библиотека кодирования : libebml v1.4.2 + libmatroska v1.6.4

Видео
Идентификатор : 1
Формат : HEVC
Формат/Информация : High Efficiency Video Coding
Профиль формата : Main 10@L4.1@High
Идентификатор кодека : V_MPEGH/ISO/HEVC
Продолжительность : 1 ч. 27 м.
Битрейт : 10,2 Мбит/сек
Ширина : 1 920 пикселей
Высота : 1 040 пикселей
Соотношение сторон : 1,85:1
Режим частоты кадров : Постоянный
Частота кадров : 23,976 (24000/1001) кадра/сек
Цветовое пространство : YUV
Субдискретизация насыщенности : 4:2:0
Битовая глубина : 10 бит
Бит/(Пиксели*Кадры) : 0.213
Размер потока : 6,25 Гбайт (69%)
Заголовок : Thursday / Rip by OldGamer
Библиотека кодирования : x265 3.5+1-ce882936d:[Windows][GCC 10.2.0][64 bit] 10bit
Настройки программы : cpuid=1111039 / frame-threads=3 / numa-pools=8 / wpp / no-pmode / no-pme / no-psnr / no-ssim / log-level=2 / input-csp=1 / input-res=1920x1040 / interlace=0 / total-frames=126304 / level-idc=41 / high-tier=1 / uhd-bd=0 / ref=5 / no-allow-non-conformance / no-repeat-headers / annexb / no-aud / no-hrd / info / hash=0 / no-temporal-layers / open-gop / min-keyint=23 / keyint=240 / gop-lookahead=0 / bframes=14 / b-adapt=2 / b-pyramid / bframe-bias=0 / rc-lookahead=40 / lookahead-slices=0 / scenecut=40 / hist-scenecut=0 / radl=0 / no-splice / no-intra-refresh / ctu=32 / min-cu-size=8 / rect / amp / max-tu-size=32 / tu-inter-depth=4 / tu-intra-depth=4 / limit-tu=1 / rdoq-level=2 / dynamic-rd=0.00 / no-ssim-rd / signhide / no-tskip / nr-intra=0 / nr-inter=0 / no-constrained-intra / no-strong-intra-smoothing / max-merge=5 / limit-refs=3 / no-limit-modes / me=3 / subme=7 / merange=57 / temporal-mvp / no-frame-dup / no-hme / weightp / weightb / no-analyze-src-pics / deblock=-3:-3 / no-sao / no-sao-non-deblock / rd=6 / selective-sao=0 / no-early-skip / rskip / no-fast-intra / no-tskip-fast / no-cu-lossless / b-intra / no-splitrd-skip / rdpenalty=0 / psy-rd=2.00 / psy-rdoq=1.00 / no-rd-refine / no-lossless / cbqpoffs=0 / crqpoffs=0 / rc=crf / crf=19.4 / qcomp=0.60 / qpstep=4 / stats-write=0 / stats-read=0 / vbv-maxrate=50000 / vbv-bufsize=50000 / vbv-init=0.9 / min-vbv-fullness=50.0 / max-vbv-fullness=80.0 / crf-max=0.0 / crf-min=0.0 / ipratio=1.40 / pbratio=1.30 / aq-mode=1 / aq-strength=1.00 / no-cutree / zone-count=1 / zones: / start-frame=119044 / end-frame=126304 / qp=36 / no-strict-cbr / qg-size=32 / no-rc-grain / qpmax=69 / qpmin=0 / no-const-vbv / sar=1 / overscan=0 / videoformat=5 / range=0 / colorprim=2 / transfer=2 / colormatrix=2 / chromaloc=0 / display-window=0 / cll=0,0 / min-luma=0 / max-luma=1023 / log2-max-poc-lsb=8 / vui-timing-info / vui-hrd-info / slices=1 / no-opt-qp-pps / no-opt-ref-list-length-pps / no-multi-pass-opt-rps / scenecut-bias=0.00 / hist-threshold=0.03 / no-opt-cu-delta-qp / no-aq-motion / no-hdr10 / no-hdr10-opt / no-dhdr10-opt / no-idr-recovery-sei / analysis-reuse-level=0 / analysis-save-reuse-level=0 / analysis-load-reuse-level=0 / scale-factor=0 / refine-intra=0 / refine-inter=0 / refine-mv=1 / refine-ctu-distortion=0 / no-limit-sao / ctu-info=0 / no-lowpass-dct / refine-analysis-type=0 / copy-pic=1 / max-ausize-factor=1.0 / no-dynamic-refine / no-single-sei / no-hevc-aq / no-svt / no-field / qp-adaptation-range=1.00 / scenecut-aware-qp=0conformance-window-offsets / right=0 / bottom=0 / decoder-max-rate=0 / no-vbv-live-multi-pass
Язык : English
Default : Да
Forced : Нет

Аудио #1
Идентификатор : 2
Формат : AC-3
Формат/Информация : Audio Coding 3
Коммерческое название : Dolby Digital
Идентификатор кодека : A_AC3
Продолжительность : 1 ч. 27 м.
Вид битрейта : Постоянный
Битрейт : 448 Кбит/сек
Каналы : 6 каналов
Channel layout : L R C LFE Ls Rs
Частота : 48,0 КГц
Частота кадров : 31,250 кадров/сек (1536 SPF)
Метод сжатия : С потерями
Размер потока : 281 Мбайт (3%)
Заголовок : MVO (R5)
Язык : Russian
Service kind : Complete Main
Default : Да
Forced : Нет

Аудио #2
Идентификатор : 3
Формат : AC-3
Формат/Информация : Audio Coding 3
Коммерческое название : Dolby Digital
Идентификатор кодека : A_AC3
Продолжительность : 1 ч. 27 м.
Вид битрейта : Постоянный
Битрейт : 384 Кбит/сек
Каналы : 6 каналов
Channel layout : L R C LFE Ls Rs
Частота : 48,0 КГц
Частота кадров : 31,250 кадров/сек (1536 SPF)
Метод сжатия : С потерями
Размер потока : 241 Мбайт (3%)
Заголовок : DVO (NTV+)
Язык : Russian
Service kind : Complete Main
Default : Нет
Forced : Нет

Аудио #3
Идентификатор : 4
Формат : AC-3
Формат/Информация : Audio Coding 3
Коммерческое название : Dolby Digital
Идентификатор кодека : A_AC3
Продолжительность : 1 ч. 27 м.
Вид битрейта : Постоянный
Битрейт : 640 Кбит/сек
Каналы : 6 каналов
Channel layout : L R C LFE Ls Rs
Частота : 48,0 КГц
Частота кадров : 31,250 кадров/сек (1536 SPF)
Метод сжатия : С потерями
Размер потока : 402 Мбайт (4%)
Заголовок : AVO (Юрий Сербин)
Язык : Russian
Service kind : Complete Main
Default : Нет
Forced : Нет

Аудио #4
Идентификатор : 5
Формат : AC-3
Формат/Информация : Audio Coding 3
Коммерческое название : Dolby Digital
Идентификатор кодека : A_AC3
Продолжительность : 1 ч. 27 м.
Вид битрейта : Постоянный
Битрейт : 640 Кбит/сек
Каналы : 6 каналов
Channel layout : L R C LFE Ls Rs
Частота : 48,0 КГц
Частота кадров : 31,250 кадров/сек (1536 SPF)
Метод сжатия : С потерями
Размер потока : 402 Мбайт (4%)
Заголовок : AVO (Юрий Живов)
Язык : Russian
Service kind : Complete Main
Default : Нет
Forced : Нет

Аудио #5
Идентификатор : 6
Формат : AC-3
Формат/Информация : Audio Coding 3
Коммерческое название : Dolby Digital
Идентификатор кодека : A_AC3
Продолжительность : 1 ч. 27 м.
Вид битрейта : Постоянный
Битрейт : 640 Кбит/сек
Каналы : 6 каналов
Channel layout : L R C LFE Ls Rs
Частота : 48,0 КГц
Частота кадров : 31,250 кадров/сек (1536 SPF)
Метод сжатия : С потерями
Размер потока : 402 Мбайт (4%)
Заголовок : AVO (Дмитрий Пучков (ранний))
Язык : Russian
Service kind : Complete Main
Default : Нет
Forced : Нет

Аудио #6
Идентификатор : 7
Формат : AC-3
Формат/Информация : Audio Coding 3
Коммерческое название : Dolby Digital
Идентификатор кодека : A_AC3
Продолжительность : 1 ч. 27 м.
Вид битрейта : Постоянный
Битрейт : 448 Кбит/сек
Каналы : 6 каналов
Channel layout : L R C LFE Ls Rs
Частота : 48,0 КГц
Частота кадров : 31,250 кадров/сек (1536 SPF)
Метод сжатия : С потерями
Размер потока : 281 Мбайт (3%)
Заголовок : AVO (Дмитрий Пучков (поздний))
Язык : Russian
Service kind : Complete Main
Default : Нет
Forced : Нет

Аудио #7
Идентификатор : 8
Формат : AC-3
Формат/Информация : Audio Coding 3
Коммерческое название : Dolby Digital
Идентификатор кодека : A_AC3
Продолжительность : 1 ч. 27 м.
Вид битрейта : Постоянный
Битрейт : 448 Кбит/сек
Каналы : 6 каналов
Channel layout : L R C LFE Ls Rs
Частота : 48,0 КГц
Частота кадров : 31,250 кадров/сек (1536 SPF)
Метод сжатия : С потерями
Размер потока : 281 Мбайт (3%)
Заголовок : AVO (Михаил Яроцкий)
Язык : Russian
Service kind : Complete Main
Default : Нет
Forced : Нет

Аудио #8
Идентификатор : 9
ID in the original source medium : 4358 (0x1106)
Формат : AC-3
Формат/Информация : Audio Coding 3
Коммерческое название : Dolby Digital
Идентификатор кодека : A_AC3
Продолжительность : 1 ч. 27 м.
Вид битрейта : Постоянный
Битрейт : 192 Кбит/сек
Каналы : 2 канала
Channel layout : L R
Частота : 48,0 КГц
Частота кадров : 31,250 кадров/сек (1536 SPF)
Метод сжатия : С потерями
Размер потока : 121 Мбайт (1%)
Заголовок : AVO (Сергей Визгунов)
Язык : Russian
Service kind : Complete Main
Default : Нет
Forced : Нет
Носитель оригинала : Blu-ray

Аудио #9
Идентификатор : 10
Формат : AC-3
Формат/Информация : Audio Coding 3
Коммерческое название : Dolby Digital
Идентификатор кодека : A_AC3
Продолжительность : 1 ч. 27 м.
Вид битрейта : Постоянный
Битрейт : 192 Кбит/сек
Каналы : 2 канала
Channel layout : L R
Частота : 48,0 КГц
Частота кадров : 31,250 кадров/сек (1536 SPF)
Метод сжатия : С потерями
Размер потока : 121 Мбайт (1%)
Заголовок : DVO (1+1)
Язык : Ukrainian
Service kind : Complete Main
Default : Нет
Forced : Нет

Аудио #10
Идентификатор : 11
Формат : AC-3
Формат/Информация : Audio Coding 3
Коммерческое название : Dolby Digital
Идентификатор кодека : A_AC3
Продолжительность : 1 ч. 27 м.
Вид битрейта : Постоянный
Битрейт : 640 Кбит/сек
Каналы : 6 каналов
Channel layout : L R C LFE Ls Rs
Частота : 48,0 КГц
Частота кадров : 31,250 кадров/сек (1536 SPF)
Метод сжатия : С потерями
Размер потока : 402 Мбайт (4%)
Заголовок : Original
Язык : English
Service kind : Complete Main
Default : Нет
Forced : Нет

Текст #1
Идентификатор : 12
Формат : UTF-8
Идентификатор кодека : S_TEXT/UTF8
Идентификатор кодека/Информация : UTF-8 Plain Text
Продолжительность : 1 ч. 22 м.
Битрейт : 90 бит/сек
Count of elements : 1195
Размер потока : 54,3 Кбайт (0%)
Заголовок : Full
Язык : Russian
Default : Нет
Forced : Нет

Текст #2
Идентификатор : 13
Формат : UTF-8
Идентификатор кодека : S_TEXT/UTF8
Идентификатор кодека/Информация : UTF-8 Plain Text
Продолжительность : 1 ч. 22 м.
Битрейт : 95 бит/сек
Count of elements : 1166
Размер потока : 57,6 Кбайт (0%)
Заголовок : SDH1 [Uncensored]
Язык : Russian
Default : Нет
Forced : Нет

Текст #3
Идентификатор : 14
Формат : UTF-8
Идентификатор кодека : S_TEXT/UTF8
Идентификатор кодека/Информация : UTF-8 Plain Text
Продолжительность : 1 ч. 22 м.
Битрейт : 95 бит/сек
Count of elements : 1166
Размер потока : 57,1 Кбайт (0%)
Заголовок : SDH2 [Uncensored]
Язык : Russian
Default : Нет
Forced : Нет

Текст #4
Идентификатор : 15
Формат : UTF-8
Идентификатор кодека : S_TEXT/UTF8
Идентификатор кодека/Информация : UTF-8 Plain Text
Продолжительность : 1 ч. 22 м.
Битрейт : 73 бит/сек
Count of elements : 1133
Размер потока : 44,3 Кбайт (0%)
Заголовок : Full
Язык : English
Default : Нет
Forced : Нет

Текст #5
Идентификатор : 16
Формат : UTF-8
Идентификатор кодека : S_TEXT/UTF8
Идентификатор кодека/Информация : UTF-8 Plain Text
Продолжительность : 1 ч. 24 м.
Битрейт : 75 бит/сек
Count of elements : 1210
Размер потока : 46,7 Кбайт (0%)
Заголовок : SDH
Язык : English
Default : Нет
Forced : Нет

Меню
00:00:00.000 : Chapter 1
00:05:18.318 : Chapter 2
00:12:42.970 : Chapter 3
00:17:10.029 : Chapter 4
00:22:43.362 : Chapter 5
00:27:42.494 : Chapter 6
00:33:41.019 : Chapter 7
00:38:28.139 : Chapter 8
00:43:30.316 : Chapter 9
00:49:01.939 : Chapter 10
00:55:13.310 : Chapter 11
00:59:53.298 : Chapter 12
01:05:45.232 : Chapter 13
01:10:38.067 : Chapter 14
01:17:07.998 : Chapter 15
01:22:45.961 : Chapter 16
Релиз от: OldGamer piratbit.org



Скачать Кровавый четверг через торрент https://d.radikal.ru/d36/2105/2a/6a036b804c7b.jpg Скачать фильм Кровавый четверг через торрент бесплантно в хорошем качестве О фильме: Бывший торговец наркотиками, прошедший через все круги ада, решает выйти на пенсию и забыть о своём тёмном прошлом. Переехав из ... 10 10 8
Info! Золотая раздача, скачанное не засчитывается.
Торрент: Зарегистрирован [2021-05-01 08:13] · скачан: 92 раз
Статус: √ проверено
Размер: 9.12 GB
Как cкачать? Как скачать Кровавый четверг через торрент | UTorrent

28-11-2019 20:33  

Отключить всю рекламу на сайте

01-05-2021 09:12 Кровавый четверг Скачать торрент  

в переводе Пучка - шыдэвра!!piratbit.org



01-05-2021 19:11 Кровавый четверг Скачать торрент  

edapush писал(а):

в переводе Пучка - шыдэвра!!

Не согласен, мы смотрели в 99 в Гавриловском, такой же шедевр.., поверь.piratbit.org



    Дорогой пользователь! Огромная просьба, поблагодарите релизера, оцените раздачу и оставьте свои комментарий, если Вы скачали Кровавый четверг через торрент бесплатно! Внесите свою лепту в развитие PiratBit!
    Комментировать посты могут только пользователи прошедшие не сложную регистрацию
    Показать сообщения:    

    Кровавый четверг через торрент
    Скачать бесплатно Кровавый четверг
    Кровавый четверг скачать торрент
    Кровавый четверг смотреть онлайн
    Cкачать фильм Кровавый четверг бесплатно
    Кровавый четверг скачать торрент в хорошем качестве
    Кровавый четверг смотреть онлайн бесплатно в хорошем качестве


    Вы не можете начинать темы
    Вы не можете отвечать на сообщения
    Вы не можете редактировать свои сообщения
    Вы не можете удалять свои сообщения
    Вы не можете голосовать в опросах
    Вы не можете прикреплять файлы к сообщениям
    Вы можете скачивать файлы