1 сезон

1 сезон

iTunes

1

iTunes

Кинопоиск HD

iTunes

13

1 сезон

RePack

30

Deluxe

ВАЖНО

ИГРА 18+

pack

RePack

MK11
pack

Легкие деньги

RePack

jed

RePack

fifa19

RePack

RDR2

RePack

NEED FOR SPEED™ PAYBACK

4 сезон

9 сезон

Бесстыжие 9 сезон

Все сериалы

все сериалы на PB.wtf

RePack

FAR CRY 5
  
Magnet ссылка

Башня безмолвия / Tower of Silence (Эрик Флинн Патон) [2019, Фэнтези, WEB-DL 1080p] MVO (rus, ukr) [iTunes] piratbit.org

Башня безмолвия через торрент piratbit.org

Раздают: 3 [ 0 KB/s ]
Размер: 7.53 GB | Добавлен: 13 д. назад | Торрент скачан:36 раз
Скачать  

02-05-2021 07:03 Башня безмолвия Скачать торрент  

Башня безмолвия | Tower of Silence
Год выпуска: 2019
Страна: США
Студия: Palmarium Limited Liability Company
Жанр: Фэнтези
Продолжительность: 01:46:55
Перевод: Профессиональный (многоголосый) | iTunes
Субтитры: Английские

Режиссер: Эрик Флинн Патон

rating

В ролях: Дженни Стерлин, Брэндон Харрис, Тейлор Роуз, Брэндон Гилл, Марк Эванс, Кристофер Л. МакАллистер, Рик Занн, Мелисса Навия, Ариэль Джейкобс, Сипиве Мойо

Описание: Когда великий маг попадает в плен к таинственному врагу, его юные последователи разрабатывают план по его спасению. Им нужно найти таинственную башню безмолвия, чтобы остановить темные силы.

Качество: WEB-DL 1080p
Формат: MKV

Видео: AVC, 1920x800 (2.40:1), 24.000 fps, 8 675 kb/s
Аудио 1: AC3, 48.0 kHz, 6 ch, 384 kb/s | [MVO, iTunes] RUS
Аудио 2: AC3, 48.0 kHz, 6 ch, 384 kb/s | [MVO, iTunes] UKR
Аудио 3: E-AC3, 48.0 kHz, 6 ch, 640 kb/s | [Оригинал] ENG
скриншот  скриншот  скриншот  скриншот  

General
Unique ID : 177880493760207407599033910059705707434 (0x85D2897542EB616AAB3BBE79D16E2BAA)
Complete name : Tower.of.Silence.(2019).WEB-DL.1080p.mkv
Format : Matroska
Format version : Version 4
File size : 7.53 GiB
Duration : 1 h 46 min
Overall bit rate : 10.1 Mb/s
Encoded date : UTC 2021-05-01 15:18:15
Writing application : mkvmerge v8.3.0 ('Over the Horizon') 64bit
Writing library : libebml v1.3.1 + libmatroska v1.4.2

Video
ID : 1
Format : AVC
Format/Info : Advanced Video Codec
Format profile : High@L4
Format settings : CABAC / 4 Ref Frames
Format settings, CABAC : Yes
Format settings, ReFrames : 4 frames
Codec ID : V_MPEG4/ISO/AVC
Duration : 1 h 46 min
Bit rate : 8 675 kb/s
Width : 1 920 pixels
Height : 800 pixels
Display aspect ratio : 2.40:1
Frame rate mode : Constant
Frame rate : 24.000 FPS
Color space : YUV
Chroma subsampling : 4:2:0
Bit depth : 8 bits
Scan type : Progressive
Bits/(Pixel*Frame) : 0.235
Stream size : 6.48 GiB (86%)
Default : Yes
Forced : No
Color range : Limited
Color primaries : BT.709
Transfer characteristics : BT.709
Matrix coefficients : BT.709

Audio #1
ID : 2
Format : AC-3
Format/Info : Audio Coding 3
Commercial name : Dolby Digital
Codec ID : A_AC3
Duration : 1 h 46 min
Bit rate mode : Constant
Bit rate : 384 kb/s
Channel(s) : 6 channels
Channel layout : L R C LFE Ls Rs
Sampling rate : 48.0 kHz
Frame rate : 31.250 FPS (1536 SPF)
Bit depth : 16 bits
Compression mode : Lossy
Stream size : 294 MiB (4%)
Title : MVO (iTunes)
Language : Russian
Service kind : Complete Main
Default : Yes
Forced : No

Audio #2
ID : 3
Format : AC-3
Format/Info : Audio Coding 3
Commercial name : Dolby Digital
Codec ID : A_AC3
Duration : 1 h 46 min
Bit rate mode : Constant
Bit rate : 384 kb/s
Channel(s) : 6 channels
Channel layout : L R C LFE Ls Rs
Sampling rate : 48.0 kHz
Frame rate : 31.250 FPS (1536 SPF)
Bit depth : 16 bits
Compression mode : Lossy
Stream size : 294 MiB (4%)
Title : MVO (iTunes)
Language : Ukrainian
Service kind : Complete Main
Default : No
Forced : No

Audio #3
ID : 4
Format : E-AC-3
Format/Info : Enhanced AC-3
Commercial name : Dolby Digital Plus
Codec ID : A_EAC3
Duration : 1 h 46 min
Bit rate mode : Constant
Bit rate : 640 kb/s
Channel(s) : 6 channels
Channel layout : L R C LFE Ls Rs
Sampling rate : 48.0 kHz
Frame rate : 31.250 FPS (1536 SPF)
Compression mode : Lossy
Stream size : 489 MiB (6%)
Title : Original
Language : English
Service kind : Complete Main
Default : No
Forced : No

Text
ID : 5
Format : UTF-8
Codec ID : S_TEXT/UTF8
Codec ID/Info : UTF-8 Plain Text
Duration : 1 h 43 min
Bit rate : 40 b/s
Count of elements : 1120
Stream size : 30.7 KiB (0%)
Title : SDH
Language : English
Default : No
Forced : No

piratbit.org



Скачать Башня безмолвия через торрент https://i114.fastpic.ru/big/2021/0423/4c/5c69f76cfd09faf682c9f0d8d525674c.jpg Скачать фильм Башня безмолвия через торрент бесплантно в хорошем качестве Описание: Когда великий маг попадает в плен к таинственному врагу, его юные последователи разрабатывают план по его спасению. Им нужно ... 10 10 4
Торрент: Зарегистрирован [2021-05-02 07:03] · скачан: 36 раз
Статус: √ проверено
Размер: 7.53 GB
Как cкачать? Как скачать Башня безмолвия через торрент | UTorrent

% Раздел Тема Автор DL S | L
Фильмы 2019-2020 [DVDrip, WEB-DLRip, HDrip] (DUB, MVO) [ 1.46 GB ] Башня безмолвия / Tower of Silence [2019 WEB-DLRip] MVO bober100 Скачать
8 | 0

28-11-2019 20:33  

Отключить всю рекламу на сайте

02-05-2021 13:16 Башня безмолвия Скачать торрент  

Минуты хватило чтобы насмотреться!piratbit.org



07-05-2021 08:17 Башня безмолвия Скачать торрент  

Око Саурона ещё наверху не хватает ... додикиpiratbit.org



    Дорогой пользователь! Огромная просьба, поблагодарите релизера, оцените раздачу и оставьте свои комментарий, если Вы скачали Башня безмолвия через торрент бесплатно! Внесите свою лепту в развитие PiratBit!
    Комментировать посты могут только пользователи прошедшие не сложную регистрацию
    Показать сообщения:    

    Башня безмолвия через торрент
    Скачать бесплатно Башня безмолвия
    Башня безмолвия скачать торрент
    Башня безмолвия смотреть онлайн
    Cкачать фильм Башня безмолвия бесплатно
    Башня безмолвия скачать торрент в хорошем качестве
    Башня безмолвия смотреть онлайн бесплатно в хорошем качестве


    Вы не можете начинать темы
    Вы не можете отвечать на сообщения
    Вы не можете редактировать свои сообщения
    Вы не можете удалять свои сообщения
    Вы не можете голосовать в опросах
    Вы не можете прикреплять файлы к сообщениям
    Вы можете скачивать файлы