1 сезон

1 сезон

iTunes

1

iTunes

Кинопоиск HD

iTunes

13

1 сезон

RePack

30

Deluxe

ВАЖНО

ИГРА 18+

pack

RePack

MK11
pack

Легкие деньги

RePack

jed

RePack

fifa19

RePack

RDR2

RePack

NEED FOR SPEED™ PAYBACK

4 сезон

9 сезон

Бесстыжие 9 сезон

Все сериалы

все сериалы на PB.wtf

RePack

FAR CRY 5
  
Magnet ссылка

Том и Джерри / Tom and Jerry (Тим Стори) [2021, Комедия, приключения, семейный, мультфильм, BD Remux 1080p] DUB [iTunes] piratbit.org

Том и Джерри через торрент piratbit.org

Раздают: 2 [ 311 KB/s ]
Размер: 22.49 GB | Добавлен: 11 д. назад | Торрент скачан:25 раз
Скачать  

02-05-2021 09:10 Том и Джерри Скачать торрент  

Том и Джерри | Tom and Jerry
Год выпуска: 2021
Страна: США
Студия: Hanna-Barbera, Lin Pictures, Metro-Goldwyn-Mayer
Жанр: Комедия, приключения, семейный, мультфильм
Продолжительность: 01:41:04
Перевод: Дублированный | iTunes
Субтитры: Русские (Forced, full), английские

Режиссер: Тим Стори

rating

В ролях: Хлоя Грейс Морец, Майкл Пенья, Джордан Болджер, Роб Делани, Пэтси Ферран, Паллави Шарда, Колин Жост, Соми Гуха, Аджай Чабра, Патрик Полетти, Дженис Ахерн, Камилла Арведсон, Кен Жонг, Джо Боун, Брайан Бовелл

Описание: После того, как Тома и Джерри выставляют за дверь, бездомные кот с мышонком решают разбежаться в разные стороны, чтобы каждый начал жизнь с чистого листа. Однако их пути вновь пересекаются… на Манхэттене. Джерри поселяется в самом роскошном отеле города, где вот-вот должна состояться «свадьба века». Новая сотрудница заведения Кайла, которой поручено решить «проблему с мышами», нанимает для этой цели Тома. Безумные кошки-мышки теперь угрожают и свадьбе, и карьере девушки, и самому отелю. Но вскоре герои оказываются перед лицом куда большей проблемы…

Качество: BD Remux 1080p
Формат: MKV

Видео: MPEG-4 AVC, 1920x1080, 27.9 Mbit/s, 23.976 fps
Аудио#1: 48 kHz, AC3, 5.1, 384 Kbps | iTunes | RUS |
Аудио#2: 48 kHz, TrueHD, 7.1, 3056 Kbps | Оригинал | ENG |

Аудио#3: 48 kHz, AC3, 5.1, 448 Kbps | Оригинал | ENG |
скриншот  скриншот  скриншот  скриншот  скриншот  

General
Unique ID : 60241165607106546068979243923155160698 (0x2D5206C6EB12C6ACC58A5FDA35EF8E7A)
Complete name : F:VideoTom.and.Jerry.2021.BDREMUX.1080p.seleZen.mkv
Format : Matroska
Format version : Version 4
File size : 22.5 GiB
Duration : 1 h 41 min
Overall bit rate mode : Variable
Overall bit rate : 31.9 Mb/s
Movie name : Tom and Jerry 2021 from seleZen
Encoded date : UTC 2021-04-30 13:11:30
Writing application : mkvmerge v55.0.0 ('Waiting For Space') 64-bit
Writing library : libebml v1.4.2 + libmatroska v1.6.4

Video
ID : 1
Format : AVC
Format/Info : Advanced Video Codec
Format profile : High@L4.1
Format settings : CABAC / 4 Ref Frames
Format settings, CABAC : Yes
Format settings, Reference : 4 frames
Codec ID : V_MPEG4/ISO/AVC
Duration : 1 h 41 min
Bit rate mode : Variable
Bit rate : 27.9 Mb/s
Maximum bit rate : 31.9 Mb/s
Width : 1 920 pixels
Height : 1 080 pixels
Display aspect ratio : 16:9
Frame rate mode : Constant
Frame rate : 23.976 (24000/1001) FPS
Color space : YUV
Chroma subsampling : 4:2:0
Bit depth : 8 bits
Scan type : Progressive
Bits/(Pixel*Frame) : 0.561
Stream size : 19.7 GiB (88%)
Language : English
Default : No
Forced : No

Audio #1
ID : 2
Format : AC-3
Format/Info : Audio Coding 3
Commercial name : Dolby Digital
Codec ID : A_AC3
Duration : 1 h 41 min
Bit rate mode : Constant
Bit rate : 384 kb/s
Channel(s) : 6 channels
Channel layout : L R C LFE Ls Rs
Sampling rate : 48.0 kHz
Frame rate : 31.250 FPS (1536 SPF)
Compression mode : Lossy
Stream size : 278 MiB (1%)
Title : Dub
Language : Russian
Service kind : Complete Main
Default : Yes
Forced : Yes

Audio #2
ID : 3
Format : MLP FBA 16-ch
Format/Info : Meridian Lossless Packing FBA with 16-channel presentation
Commercial name : Dolby TrueHD with Dolby Atmos
Codec ID : A_TRUEHD
Duration : 1 h 41 min
Bit rate mode : Variable
Bit rate : 3 056 kb/s
Maximum bit rate : 4 767 kb/s
Channel(s) : 8 channels
Channel layout : L R C LFE Ls Rs Lb Rb
Sampling rate : 48.0 kHz
Frame rate : 1 200.000 FPS (40 SPF)
Compression mode : Lossless
Stream size : 2.16 GiB (10%)
Title : Original
Language : English
Default : No
Forced : No
Number of dynamic objects : 11
Bed channel count : 1 channel
Bed channel configuration : LFE

Audio #3
ID : 4
Format : AC-3
Format/Info : Audio Coding 3
Commercial name : Dolby Digital
Format settings : Dolby Surround EX
Codec ID : A_AC3
Duration : 1 h 41 min
Bit rate mode : Constant
Bit rate : 448 kb/s
Channel(s) : 6 channels
Channel layout : L R C LFE Ls Rs
Sampling rate : 48.0 kHz
Frame rate : 31.250 FPS (1536 SPF)
Compression mode : Lossy
Stream size : 324 MiB (1%)
Language : English
Service kind : Complete Main
Default : No
Forced : No

Text #1
ID : 5
Format : UTF-8
Codec ID : S_TEXT/UTF8
Codec ID/Info : UTF-8 Plain Text
Duration : 1 h 37 min
Bit rate : 5 b/s
Count of elements : 96
Stream size : 4.25 KiB (0%)
Title : Forced
Language : Russian
Default : Yes
Forced : Yes

Text #2
ID : 6
Format : UTF-8
Codec ID : S_TEXT/UTF8
Codec ID/Info : UTF-8 Plain Text
Duration : 1 h 40 min
Bit rate : 105 b/s
Count of elements : 1531
Stream size : 78.0 KiB (0%)
Title : Full
Language : Russian
Default : No
Forced : No

Text #3
ID : 7
Format : UTF-8
Codec ID : S_TEXT/UTF8
Codec ID/Info : UTF-8 Plain Text
Duration : 1 h 40 min
Bit rate : 79 b/s
Count of elements : 1916
Stream size : 58.6 KiB (0%)
Title : Full
Language : English
Default : No
Forced : No

Text #4
ID : 8
Format : UTF-8
Codec ID : S_TEXT/UTF8
Codec ID/Info : UTF-8 Plain Text
Duration : 1 h 40 min
Bit rate : 94 b/s
Count of elements : 2266
Stream size : 69.4 KiB (0%)
Title : SDH
Language : English
Default : No
Forced : No

Menu
00:00:00.000 : en:Глава 01
00:05:51.434 : en:Глава 02
00:15:26.008 : en:Глава 03
00:24:49.113 : en:Глава 04
00:31:41.900 : en:Глава 05
00:39:37.709 : en:Глава 06
00:48:48.259 : en:Глава 07
00:58:37.264 : en:Глава 08
01:07:21.704 : en:Глава 09
01:11:59.857 : en:Глава 10
01:22:26.733 : en:Глава 11
01:26:17.381 : en:Глава 12
01:34:07.851 : en:Глава 13

piratbit.org



Скачать Том и Джерри через торрент https://a.radikal.ru/a20/2103/17/b8296166c95b.jpg Скачать фильм Том и Джерри через торрент бесплантно в хорошем качестве Описание: После того, как Тома и Джерри выставляют за дверь, бездомные кот с мышонком решают разбежаться в разные стороны, чтобы каждый ... 10 10 5
Торрент: Зарегистрирован [2021-05-02 09:10] · скачан: 25 раз
Статус: √ проверено
Размер: 22.49 GB
Как cкачать? Как скачать Том и Джерри через торрент | UTorrent

% Раздел Тема Автор DL S | L
Иностранные мультфильмы [ 2.63 GB ] Том и Джерри / Tom and Jerry [2021 мультфильм BDRip-AVC] bober100 Скачать
6 | 0
Иностранные мультфильмы [ 1.42 GB ] Том и Джерри / Tom and Jerry [2021 мультфильм BDRip] bober100 Скачать
5 | 0
Иностранные мультфильмы [ 746 MB ] Том и Джерри / Tom and Jerry [2021 мультфильм BDRip] bober100 Скачать
1 | 0
Зарубежные Мультфильмы (BDRip 1080p, 720p, Blu-ray, BD-Remux) [ 13.55 GB ] Том и Джерри / Tom and Jerry [2021 мультфильм BDRip 1080p] bober100 Скачать
5 | 0
Зарубежные Мультфильмы (BDRip 1080p, 720p, Blu-ray, BD-Remux) [ 5.07 GB ] Том и Джерри / Tom and Jerry [2021 мультфильм BDRip 720p] bober100 Скачать
8 | 0
Иностранные мультфильмы [ 1.42 GB ] Том и Джерри / Tom and Jerry [2021 мультфильм BDRip] - Twi7ter Скачать
47 | 0
Зарубежные Мультфильмы (WEB-DL 720p, 1080p) [ 7.28 GB ] Том и Джерри / Tom and Jerry [2021 мультфильм WEB-DL 1080p] killermax2013 Скачать
18 | 0

28-11-2019 20:33  

Отключить всю рекламу на сайте

    Дорогой пользователь! Огромная просьба, поблагодарите релизера, оцените раздачу и оставьте свои комментарий, если Вы скачали Том и Джерри через торрент бесплатно! Внесите свою лепту в развитие PiratBit!
    Комментировать посты могут только пользователи прошедшие не сложную регистрацию
    Показать сообщения:    

    Том и Джерри через торрент
    Скачать бесплатно Том и Джерри
    Том и Джерри скачать торрент
    Том и Джерри смотреть онлайн
    Cкачать фильм Том и Джерри бесплатно
    Том и Джерри скачать торрент в хорошем качестве
    Том и Джерри смотреть онлайн бесплатно в хорошем качестве


    Вы не можете начинать темы
    Вы не можете отвечать на сообщения
    Вы не можете редактировать свои сообщения
    Вы не можете удалять свои сообщения
    Вы не можете голосовать в опросах
    Вы не можете прикреплять файлы к сообщениям
    Вы можете скачивать файлы