1 сезон

3 сезон

iTunes

1

iTunes

DUB Netflix

iTunes

13

1 сезон

RePack

30

Deluxe

pack

Легкие деньги

ВАЖНО

ИГРА 18+

pack

RePack

MK11

RePack

jed

RePack

fifa19

RePack

RDR2

RePack

NEED FOR SPEED™ PAYBACK

4 сезон

9 сезон

Бесстыжие 9 сезон

Все сериалы

все сериалы на PB.wtf

RePack

FAR CRY 5

Anonymous, добрый день, мы не успеваем до 1 числа собрать деньги на оплату серверов, помогите нам пожалуйста в это трудное время. В качестве благодарности мы отключим Вам всю рекламу на сайте (укажите свой ник в строку Ваше имя)!

×
  
Magnet ссылка

ИП Пирогова / Сезон: 4 / Серии: 1-14 из 20 (Дарья Балинова) [2021, Комедия, WEBRip] piratbit.org

ИП Пирогова через торрент piratbit.org

Раздают: 2 [ 83 KB/s ] Качают: 5 [ 0 KB/s ]
Размер: 4.12 GB | Добавлен: 5 д. назад | Торрент скачан:12 раз
Скачать  

02-05-2021 11:13 ИП Пирогова Скачать торрент  

ИП Пирогова
Год выпуска: 2021
Страна: Россия
Жанр: Комедия
Продолжительность: ~ 00:25:00
Перевод: Не требуется
Субтитры: отсутствуют

Режиссер: Дарья Балинова

rating

В ролях: Елена Подкаминская, Данила Дунаев, Александр Панкратов-Чёрный, Александр Константинов, Ксения Теплова, Елена Валюшкина, Дмитрий Лысенков, Алексей Агранович, Сергей Стёпин, Галина Безрук, Василина Юсковец, Андрей Козлов, Андрей Козлов (II), Мария Баева, Роман Курцын, Игорь Юдин

Описание: Оставив родную кондитерскую «Пирогова» на попечении семьи, Вера уезжает в Санкт-Петербург. Совместно с Денисом Алексеевичем и его сетью «Бальзак-Гурмэ» она открывает новое кафе-пекарню. Дела заведения идут в гору, но мысли Веры все чаще возвращаются в Москву. Она вспоминает прошлое и скучает по дому, семье, своему маленькому бизнесу и, конечно, по Андрею. Тем временем жизнь Вериной семьи не стоит на месте: Саша и Валя готовятся к свадьбе, попутно познавая тонкости родительства с сыном Эдгаром. А Дед вовсю налаживает личную жизнь с новой пассией по имени Марьяна.

Качество: WEBRip
Формат: AVI

Видео: 720x400 (16:9), 25.000 fps, XviD build 73, 1600 Kbps
Аудио: 48.0 kHz, AC3 Dolby Digital, 2/0 (L,R) ch, ~ 192 kbps
скриншот  скриншот  скриншот  скриншот  

General
Complete name : Downloads\ИП Пирогова.S04.(2021).WEBRip.Files-x\01.IP.Pirogova.s04.(2021).WEBRip.Files-x.avi
Format : AVI
Format/Info : Audio Video Interleave
File size : 320 MiB
Duration : 24 min 48 s
Overall bit rate : 1 802 kb/s
Writing application : VirtualDubMod 1.5.10.3 | www.virtualdub-fr.org || (build 2550/release)
Writing library : VirtualDubMod build 2550/release
Video #0
ID : 0
Format : MPEG-4 Visual
Format profile : Advanced Simple@L5
Format settings : BVOP1 / Custom Matrix
Format settings, BVOP : 1
Format settings, QPel : No
Format settings, GMC : No warppoints
Format settings, Matrix : Custom
Codec ID : XVID
Codec ID/Hint : XviD
Duration : 24 min 48 s
Bit rate : 1 600 kb/s
Width : 720 pixels
Height : 400 pixels
Display aspect ratio : 16:9
Frame rate : 25.000 FPS
Color space : YUV
Chroma subsampling : 4:2:0
Bit depth : 8 bits
Scan type : Progressive
Compression mode : Lossy
Bits/(Pixel*Frame) : 0.222
Stream size : 284 MiB (89%)
Writing library : XviD 73
Audio #1
ID : 1
Format : AC-3
Format/Info : Audio Coding 3
Codec ID : 2000
Duration : 24 min 48 s
Bit rate mode : Constant
Bit rate : 192 kb/s
Channel(s) : 2 channels
Channel positions : Front: L R
Sampling rate : 48.0 kHz
Frame rate : 31.250 FPS (1536 SPF)
Bit depth : 16 bits
Compression mode : Lossy
Stream size : 34.1 MiB (11%)
Alignment : Split accross interleaves
Interleave, duration : 40 ms (1.00 video frame)
Interleave, preload duration : 500 ms
Service kind : Complete Main

Когда раздача ведётся путём добавления новых серий, при каждом добавлении создётся новый торрент. Чтобы начать докачку новой серии, пользователям необходимо сделать следующее:
(1) остановить скачивание,
(2) удалить старый торрент у себя из клиента (старые серии удалять не надо),
(3) скачать новый торрент и запустить его у себя в клиенте вместо старого, при этом указать клиенту путь в старую папку, куда и должно происходить скачивание новых серий.
Ваш клиент при этом должен произвести хеширование (проверку) старой папки (если не производит сам - помогите ему сделать это), и будет докачивать только те серии, которых у вас ещё нет. Старые серии при этом не удаляются, а продолжают раздаваться!
Eсли вы уже удалили старые серии, то предотвратить повторную закачку старых серий можно, отжав галочку в соответсвующих местах при запуске нового торрента. По возможности, желательно не удалять старые серии как можно дольше, чтобы релизер не столько продолжал раздавать старые серии, а смог сконцентрироваться на новых.
piratbit.org



Скачать ИП Пирогова через торрент https://i114.fastpic.ru/big/2021/0506/2a/df62adcf559f63120eab57962a331c2a.jpg Скачать фильм ИП Пирогова через торрент бесплантно в хорошем качестве Описание: Оставив родную кондитерскую «Пирогова» на попечении семьи, Вера уезжает в Санкт-Петербург. Совместно с Денисом Алексеевичем и его ... 10 10 9
Торрент: Зарегистрирован [2021-06-17 10:14] · скачан: 12 раз
Статус: √ проверено
Размер: 4.12 GB
Как cкачать? Как скачать ИП Пирогова через торрент | UTorrent

% Раздел Тема Автор DL S | L
TNT serials [ 4.1 GB ] ИП Пирогова / Сезон: 4 / Серии: 1-14 из 20 [2021 WEBRip-AVC] bober100 Скачать
2 | 1

28-11-2019 20:33  

Отключить всю рекламу на сайте

    Дорогой пользователь! Огромная просьба, поблагодарите релизера, оцените раздачу и оставьте свои комментарий, если Вы скачали ИП Пирогова через торрент бесплатно! Внесите свою лепту в развитие PiratBit!
    Комментировать посты могут только пользователи прошедшие не сложную регистрацию
    Показать сообщения:    

    ИП Пирогова через торрент
    Скачать бесплатно ИП Пирогова
    ИП Пирогова скачать торрент
    ИП Пирогова смотреть онлайн
    Cкачать фильм ИП Пирогова бесплатно
    ИП Пирогова скачать торрент в хорошем качестве
    ИП Пирогова смотреть онлайн бесплатно в хорошем качестве


    Вы не можете начинать темы
    Вы не можете отвечать на сообщения
    Вы не можете редактировать свои сообщения
    Вы не можете удалять свои сообщения
    Вы не можете голосовать в опросах
    Вы не можете прикреплять файлы к сообщениям
    Вы можете скачивать файлы