1 сезон

1 сезон

iTunes

1

iTunes

Кинопоиск HD

iTunes

13

1 сезон

RePack

30

Deluxe

ВАЖНО

ИГРА 18+

pack

RePack

MK11
pack

Легкие деньги

RePack

jed

RePack

fifa19

RePack

RDR2

RePack

NEED FOR SPEED™ PAYBACK

4 сезон

9 сезон

Бесстыжие 9 сезон

Все сериалы

все сериалы на PB.wtf

RePack

FAR CRY 5
  
Magnet ссылка

Митчеллы против машин / The Mitchells vs. the Machines (Майкл Рианда, Джефф Роу) [2021, Мультфильм, фантастика, комедия, приключения, семейный, WEB-DL-HEVC 1080p] DUB [Пифагор / Netflix] piratbit.org

Митчеллы против машин через торрент piratbit.org

Раздают: 35 [ 1 MB/s ]
Размер: 6.09 GB | Добавлен: 11 д. назад | Торрент скачан:205 раз
Скачать  

02-05-2021 12:45 Митчеллы против машин Скачать торрент  

Митчеллы против машин | The Mitchells vs. the Machines
Год выпуска: 2021
Страна: США, Канада, Франция
Студия: Columbia Pictures Corporation, Lord Miller, Sony Pictures Animation
Жанр: Мультфильм, фантастика, комедия, приключения, семейный
Продолжительность: 01:54:02
Перевод: Дублированный | Пифагор по заказу Netflix
Субтитры: Русские (Forced, full), английские

Режиссер: Майкл Рианда, Джефф Роу

rating

В ролях: Дэйв Фоли, Эбби Джейкобсон, Дэнни МакБрайд, Майя Рудольф, Эрик Андре, Майкл Рианда

Описание: Мультфильм рассказывает о не самой дружной, но все же любящей семье Митчеллов, которые отправляются в поездку и сталкиваются с восстанием машин. Оказывается, что по всему миру все электронные устройства, от мобильных до автомобилей с автопилотом, настроились против людей. Митчеллам приходится отложить все личные проблемы, чтобы спасти человечество.

Качество: WEB-DL-HEVC 1080p
Формат: MKV

Видео: 1920x1080 at 23.976 fps, MPEG-H HEVC HDR Video, ~ 5823 kbps avg
Аудио #01: 48 kHz, E-AC3, 5.1, 640 Kbps | Netflix | RUS |
Аудио #02: 48 kHz, AC3, 5.1, 640 Kbps | Netflix | RUS |
Аудио #03: 48 kHz, E-AC3+Atmos, 5.1, 768 Kbps | Оригинал | ENG |
скриншот  скриншот  скриншот  скриншот  скриншот  

General
Unique ID : 207848114982318061958776490897426208395 (0x9C5E17422289FBC1BA245CFE52C1D68B)
Complete name : F:VideoThe.Mitchells.vs..the.Machines.2021.WEB-DL.1080p.HDR.seleZen.mkv
Format : Matroska
Format version : Version 4
File size : 6.09 GiB
Duration : 1 h 54 min
Overall bit rate : 7 648 kb/s
Movie name : The Mitchells vs. the Machines 2021 from seleZen
Encoded date : UTC 2021-04-30 07:46:32
Writing application : mkvmerge v55.0.0 ('Waiting For Space') 64-bit
Writing library : libebml v1.4.2 + libmatroska v1.6.4

Video
ID : 1
Format : HEVC
Format/Info : High Efficiency Video Coding
Format profile : Main 10@L4@Main
HDR format : SMPTE ST 2086, HDR10 compatible
Codec ID : V_MPEGH/ISO/HEVC
Duration : 1 h 49 min
Bit rate : 5 823 kb/s
Width : 1 920 pixels
Height : 1 080 pixels
Display aspect ratio : 16:9
Frame rate mode : Constant
Frame rate : 23.976 (24000/1001) FPS
Color space : YUV
Chroma subsampling : 4:2:0 (Type 2)
Bit depth : 10 bits
Bits/(Pixel*Frame) : 0.117
Stream size : 4.46 GiB (73%)
Language : English
Default : Yes
Forced : No
Color range : Limited
Color primaries : BT.2020
Transfer characteristics : PQ
Matrix coefficients : BT.2020 non-constant
Mastering display color pri : Display P3
Mastering display luminance : min: 0.0001 cd/m2, max: 1000 cd/m2
Maximum Content Light Level : 753 cd/m2
Maximum Frame-Average Light : 167 cd/m2

Audio #1
ID : 2
Format : E-AC-3
Format/Info : Enhanced AC-3
Commercial name : Dolby Digital Plus
Codec ID : A_EAC3
Duration : 1 h 54 min
Bit rate mode : Constant
Bit rate : 640 kb/s
Channel(s) : 6 channels
Channel layout : L R C LFE Ls Rs
Sampling rate : 48.0 kHz
Frame rate : 31.250 FPS (1536 SPF)
Compression mode : Lossy
Stream size : 522 MiB (8%)
Title : Netflix
Language : Russian
Service kind : Complete Main
Default : Yes
Forced : Yes

Audio #2
ID : 3
Format : AC-3
Format/Info : Audio Coding 3
Commercial name : Dolby Digital
Codec ID : A_AC3
Duration : 1 h 54 min
Bit rate mode : Constant
Bit rate : 640 kb/s
Channel(s) : 6 channels
Channel layout : L R C LFE Ls Rs
Sampling rate : 48.0 kHz
Frame rate : 31.250 FPS (1536 SPF)
Compression mode : Lossy
Stream size : 522 MiB (8%)
Title : Netflix
Language : Russian
Service kind : Complete Main
Default : No
Forced : No

Audio #3
ID : 4
Format : E-AC-3 JOC
Format/Info : Enhanced AC-3 with Joint Object Coding
Commercial name : Dolby Digital Plus with Dolby Atmos
Codec ID : A_EAC3
Duration : 1 h 54 min
Bit rate mode : Constant
Bit rate : 768 kb/s
Channel(s) : 6 channels
Channel layout : L R C LFE Ls Rs
Sampling rate : 48.0 kHz
Frame rate : 31.250 FPS (1536 SPF)
Compression mode : Lossy
Stream size : 626 MiB (10%)
Title : English
Language : English
Service kind : Complete Main
Default : No
Forced : No
Complexity index : 16
Number of dynamic objects : 15
Bed channel count : 1 channel
Bed channel configuration : LFE

Text #1
ID : 5
Format : UTF-8
Codec ID : S_TEXT/UTF8
Codec ID/Info : UTF-8 Plain Text
Duration : 1 h 48 min
Bit rate : 5 b/s
Count of elements : 129
Stream size : 4.05 KiB (0%)
Title : Forced
Language : Russian
Default : Yes
Forced : Yes

Text #2
ID : 6
Format : UTF-8
Codec ID : S_TEXT/UTF8
Codec ID/Info : UTF-8 Plain Text
Duration : 1 h 48 min
Bit rate : 99 b/s
Count of elements : 1558
Stream size : 79.6 KiB (0%)
Title : Russian
Language : Russian
Default : No
Forced : No

Text #3
ID : 7
Format : UTF-8
Codec ID : S_TEXT/UTF8
Codec ID/Info : UTF-8 Plain Text
Duration : 24 min 10 s
Bit rate : 1 b/s
Count of elements : 9
Stream size : 248 Bytes (0%)
Title : English [Forced]
Language : English
Default : No
Forced : Yes

Text #4
ID : 8
Format : UTF-8
Codec ID : S_TEXT/UTF8
Codec ID/Info : UTF-8 Plain Text
Duration : 1 h 49 min
Bit rate : 113 b/s
Count of elements : 2179
Stream size : 90.8 KiB (0%)
Title : English
Language : English
Default : No
Forced : No

piratbit.org



Скачать Митчеллы против машин через торрент https://c.radikal.ru/c30/2104/dc/4585880429f5.jpg Скачать фильм Митчеллы против машин через торрент бесплантно в хорошем качестве Описание: Мультфильм рассказывает о не самой дружной, но все же любящей семье Митчеллов, которые отправляются в поездку и сталкиваются с ... 10 10 9
Торрент: Зарегистрирован [2021-05-02 12:45] · скачан: 205 раз
Статус: √ проверено
Размер: 6.09 GB
Как cкачать? Как скачать Митчеллы против машин через торрент | UTorrent

% Раздел Тема Автор DL S | L
Зарубежные Мультфильмы (WEB-DL 720p, 1080p) [ 7.04 GB ] Митчеллы против машин / The Mitchells vs. the Machines [2021 Мультфильм WEB-DL 1080p] DUB [Пифагор / Netflix] bober100 Скачать
25 | 0
Зарубежные Мультфильмы (WEB-DL 720p, 1080p) [ 4.04 GB ] Митчеллы против машин / The Mitchells vs. the Machines [2021 Мультфильм WEB-DL 720p] DUB [Пифагор / Netflix] bober100 Скачать
14 | 0
Иностранные мультфильмы [ 1.46 GB ] Митчеллы против машин / The Mitchells vs. the Machines [2021 Мультфильм WEB-DLRip] DUB [Пифагор / Netflix] bober100 Скачать
72 | 2

28-11-2019 20:33  

Отключить всю рекламу на сайте

12-05-2021 09:52 Митчеллы против машин Скачать торрент  

Прикольный мульт,улыбнулpiratbit.org



    Дорогой пользователь! Огромная просьба, поблагодарите релизера, оцените раздачу и оставьте свои комментарий, если Вы скачали Митчеллы против машин через торрент бесплатно! Внесите свою лепту в развитие PiratBit!
    Комментировать посты могут только пользователи прошедшие не сложную регистрацию
    Показать сообщения:    

    Митчеллы против машин через торрент
    Скачать бесплатно Митчеллы против машин
    Митчеллы против машин скачать торрент
    Митчеллы против машин смотреть онлайн
    Cкачать фильм Митчеллы против машин бесплатно
    Митчеллы против машин скачать торрент в хорошем качестве
    Митчеллы против машин смотреть онлайн бесплатно в хорошем качестве


    Вы не можете начинать темы
    Вы не можете отвечать на сообщения
    Вы не можете редактировать свои сообщения
    Вы не можете удалять свои сообщения
    Вы не можете голосовать в опросах
    Вы не можете прикреплять файлы к сообщениям
    Вы можете скачивать файлы