1 сезон

1 сезон

iTunes

1

iTunes

Кинопоиск HD

iTunes

13

1 сезон

RePack

30

GLOBAL

ВАЖНО

ИГРА 18+

pack

RePack

MK11
pack

Легкие деньги

RePack

jed

RePack

fifa19

RePack

RDR2

RePack

NEED FOR SPEED™ PAYBACK

4 сезон

9 сезон

Бесстыжие 9 сезон

Все сериалы

все сериалы на PB.wtf

RePack

FAR CRY 5
  
Magnet ссылка

Дино Дана / Dino Dana: The Movie (Дж.Дж. Джонсон) [2020 г., фэнтези, приключения, семейный, WEB-DLRip, Дубляж "iTunes"] piratbit.org

Дино Дана через торрент piratbit.org

Раздают: 3 [ 0 KB/s ]
Размер: 1.46 GB | Добавлен: 13 д. назад | Торрент скачан:30 раз
Скачать  

02-05-2021 18:23 Дино Дана Скачать торрент  

Дино Дана / Dino Dana: The Movie
Год выпуска: 2020
Страна: Канада, США / Sinking Ship Entertainment, Téléfilm Canada, Amazon Studios
Жанр: фэнтези, приключения, семейный
Продолжительность: 01:16:10
Перевод: Дубляж (iTunes)
«Приключения Юрского периода»

Режиссер: Дж.Дж. Джонсон

rating

В ролях: Микела Люси,Дональд Хендерсон, Милли Дэвис, Никола Коррейя-Дамуд, Саара Чодри, Эмиш Пател, Райан Махлуф, Трек Буччино, Джейсон Спивак, Ричи Лоуренс

Описание: 10-летняя Дана обожает динозавров и все, что с ними связано. Однажды она обнаруживает в себе способность видеть в своем городе настоящих, живых динозавров! Дана исследует новый, открывшийся для нее мир, и пытается раскрыть все его тайны. Вместе с друзьями она хочет найти ответ на вопрос, почему, ученые находят так много останков взрослых динозавров, но совсем нет следов их детенышей… Девочка готова отправиться в незабываемое путешествие в парк Юрского периода, устроенный прямо на заднем дворе ее дома. Ей предстоит грандиознейшее приключение, полное опасностей и необыкновенных открытий.

Качество: WEB-DLRip
Формат: AVI
Видео кодек: DivX
Аудио кодек: AC3
Видео: 720x304 (2.37:1), 24.000 fps, DivX Codec 4.x ~2356 kbps avg, 0.45 bit/pixel
Аудио: 48 kHz, AC3 Dolby Digital, 3/2 (L,C,R,l,r) + LFE ch, ~384 kbps








Общее
Полное имя : G:\ФИЛЬМЫ\Дино Дана.2020.D.WEB-DLRip.avi
Формат : AVI
Формат/Информация : Audio Video Interleave
Размер файла : 1,46 Гбайт
Продолжительность : 1 ч. 16 м.
Общий поток : 2 750 Кбит/сек
Программа кодирования : VirtualDubMod 1.5.10.3 | www.virtualdub-fr.org || (build 2550/release)
Библиотека кодирования : VirtualDubMod build 2550/release

Видео
Идентификатор : 0
Формат : MPEG-4 Visual
Профиль формата : Advanced Simple@L5
Настройки формата : BVOP2
Параметр BVOP формата : 2
Параметр QPel формата : Нет
Параметр GMC формата : Без точки перехода
Параметр матрицы формата : Default (MPEG)
Идентификатор кодека : DIVX
Идентификатор кодека/Информация : Project Mayo
Идентификатор кодека/Подсказка : DivX 4
Продолжительность : 1 ч. 16 м.
Битрейт : 2 357 Кбит/сек
Ширина : 720 пикселей
Высота : 304 пикселя
Соотношение сторон : 2,35:1
Частота кадров : 24,000 кадра/сек
Цветовое пространство : YUV
Субдискретизация насыщенности : 4:2:0
Битовая глубина : 8 бит
Тип развёртки : Прогрессивная
Метод сжатия : С потерями
Бит/(Пиксели*Кадры) : 0.449
Размер потока : 1,25 Гбайт (86%)
Библиотека кодирования : XviD 1.2.1 (UTC 2008-12-04)

Аудио
Идентификатор : 1
Формат : AC-3
Формат/Информация : Audio Coding 3
Коммерческое название : Dolby Digital
Идентификатор кодека : 2000
Продолжительность : 1 ч. 16 м.
Вид битрейта : Постоянный
Битрейт : 384 Кбит/сек
Каналы : 6 каналов
Channel layout : L R C LFE Ls Rs
Частота : 48,0 КГц
Частота кадров : 31,250 кадров/сек (1536 SPF)
Метод сжатия : С потерями
Размер потока : 209 Мбайт (14%)
Выравнивание : Разделение по промежуткам
Продолжительность промежутка : 42 мс. (1,00 видеокадр)
Время предзагрузки промежутка : 500 мс.
Service kind : Complete Main

Report created by : MediaInfoLib - v21.03
Report created on : UTC 2021-05-02 18:04:33

piratbit.org



Скачать Дино Дана через торрент https://pic1.kartinco.top/new/img/2021-05/02/rpae0ln083xb1cxpix47isldk.jpg Скачать фильм Дино Дана через торрент бесплантно в хорошем качестве Описание: 10-летняя Дана обожает динозавров и все, что с ними связано. Однажды она обнаруживает в себе способность видеть в своем городе ... 10 10 4
Торрент: Зарегистрирован [2021-05-02 18:23] · скачан: 30 раз
Статус: √ проверено
Размер: 1.46 GB
Как cкачать? Как скачать Дино Дана через торрент | UTorrent

28-11-2019 20:33  

Отключить всю рекламу на сайте

    Дорогой пользователь! Огромная просьба, поблагодарите релизера, оцените раздачу и оставьте свои комментарий, если Вы скачали Дино Дана через торрент бесплатно! Внесите свою лепту в развитие PiratBit!
    Комментировать посты могут только пользователи прошедшие не сложную регистрацию
    Показать сообщения:    

    Дино Дана через торрент
    Скачать бесплатно Дино Дана
    Дино Дана скачать торрент
    Дино Дана смотреть онлайн
    Cкачать фильм Дино Дана бесплатно
    Дино Дана скачать торрент в хорошем качестве
    Дино Дана смотреть онлайн бесплатно в хорошем качестве


    Вы не можете начинать темы
    Вы не можете отвечать на сообщения
    Вы не можете редактировать свои сообщения
    Вы не можете удалять свои сообщения
    Вы не можете голосовать в опросах
    Вы не можете прикреплять файлы к сообщениям
    Вы можете скачивать файлы