1 сезон

1 сезон

iTunes

1

iTunes

Кинопоиск HD

iTunes

13

1 сезон

RePack

30

Deluxe

ВАЖНО

ИГРА 18+

pack

RePack

MK11
pack

Легкие деньги

RePack

jed

RePack

fifa19

RePack

RDR2

RePack

NEED FOR SPEED™ PAYBACK

4 сезон

9 сезон

Бесстыжие 9 сезон

Все сериалы

все сериалы на PB.wtf

RePack

FAR CRY 5
  
Magnet ссылка

Пираты Сомали / The Pirates of Somalia (Брайан Бакли) [2017, драма, биография, HDRip-AVC] MVO [SDI Media] piratbit.org

Пираты Сомали через торрент piratbit.org

Раздают: 14 [ 58 KB/s ]
Размер: 2.16 GB | Добавлен: 10 д. назад | Торрент скачан:69 раз
Скачать  

02-05-2021 19:15 Пираты Сомали Скачать торрент  


Пираты Сомали / The Pirates of Somalia
Информация о фильме:
Название: Пираты Сомали
Оригинальное название: The Pirates of Somalia
Год выхода: 2017
Жанр: Драма, биография
Режиссер: Брайан Бакли

В ролях: Аль Пачино, Эван Питерс, Мелани Гриффит, Баркхад Абди, Филип Эттинджер, Корал Пенья, Расселл Познер, Роберт Хоббс, Эйдан Уайток, Абди Дельго, Дэррон Каллиган

Описание: В 2008 году мечтающий стать журналистом Джей Бахадур по совету бывалого коллеги едет в Сомали, чтобы написать книгу об этой стране. Никакого конкретного плана у него нет, но, как говорится, новичкам везёт — и вот уже парень жмёт руку президенту страны и берёт интервью у сомалийских пиратов.



Страна: Сомали, Кения, Судан, ЮАР, США
Студия: BCDF Pictures, Hungry Man, Kalahari Pictures
Продолжительность: 01:57:45
Перевод: Профессиональный (многоголосый, закадровый) - SDI Media



Информация о файле:
Кодек: AVC
Формат: MKV
Качество: HDRip-AVC
Видео: MPEG-4 AVC, 1024x428, 23.976 fps, 1795 kbps
Аудио RU: AC3, 6 ch, 48 kHz, 384 kbps
Аудио EN: AC3, 6 ch, 48 kHz, 448 kbps
Субтитры: Английские (Full, SDH)
Навигация по главам: Да

x264 info: frame I:1479 Avg QP:13.48 size: 70690
x264 info: frame P:41744 Avg QP:17.23 size: 19821
x264 info: frame B:126164 Avg QP:21.19 size: 5168
x264 info: consecutive B-frames: 4.9% 3.8% 9.7% 20.0% 18.6% 31.7% 5.9% 1.6% 1.5% 0.9% 1.3%
General
Unique ID : 131568690322205789391411352806939849717 (0x62FB35425751C9F8DB3A1614D8DE73F5)
Complete name : D:uTorrentРипы_от_wolf1245_MediaBitThe Pirates of Somalia.2017.MVO.SDI.HDRip-AVC.[wolf1245.MediaBit].mkv
Format : Matroska
Format version : Version 4
File size : 2.16 GiB
Duration : 1 h 57 min
Overall bit rate : 2 628 kb/s
Movie name : The Pirates of Somalia.2017.MVO.SDI.HDRip-AVC.[wolf1245.MediaBit]
Encoded date : UTC 2021-05-02 19:02:36
Writing application : mkvmerge v56.1.0 ('My Friend') 64-bit
Writing library : libebml v1.4.2 + libmatroska v1.6.4
Video
ID : 1
Format : AVC
Format/Info : Advanced Video Codec
Format profile : High@L4.1
Format settings : CABAC / 12 Ref Frames
Format settings, CABAC : Yes
Format settings, Reference frames : 12 frames
Codec ID : V_MPEG4/ISO/AVC
Duration : 1 h 57 min
Bit rate : 1 795 kb/s
Width : 1 024 pixels
Height : 428 pixels
Display aspect ratio : 2.40:1
Frame rate mode : Constant
Frame rate : 23.976 (24000/1001) FPS
Color space : YUV
Chroma subsampling : 4:2:0
Bit depth : 8 bits
Scan type : Progressive
Bits/(Pixel*Frame) : 0.171
Stream size : 1.48 GiB (68%)
Title : .[wolf1245.MediaBit]
Writing library : x264 core 157 r2958 57baac4
Encoding settings : cabac=1 / ref=12 / deblock=1:-3:-3 / analyse=0x3:0x133 / me=umh / subme=11 / psy=1 / psy_rd=1.02:0.07 / mixed_ref=1 / me_range=48 / chroma_me=1 / trellis=2 / 8x8dct=1 / cqm=0 / deadzone=21,11 / fast_pskip=1 / chroma_qp_offset=-3 / threads=10 / lookahead_threads=2 / sliced_threads=0 / nr=0 / decimate=1 / interlaced=0 / bluray_compat=0 / constrained_intra=0 / bframes=10 / b_pyramid=2 / b_adapt=2 / b_bias=0 / direct=3 / weightb=1 / open_gop=0 / weightp=2 / keyint=240 / keyint_min=24 / scenecut=40 / intra_refresh=0 / rc_lookahead=100 / rc=2pass / mbtree=1 / bitrate=1795 / ratetol=1.0 / qcomp=0.60 / qpmin=0 / qpmax=69 / qpstep=4 / cplxblur=20.0 / qblur=0.5 / vbv_maxrate=50000 / vbv_bufsize=62500 / nal_hrd=none / filler=0 / ip_ratio=1.40 / aq=1:0.80
Language : English
Default : Yes
Forced : No
Color range : Limited
Color primaries : BT.709
Transfer characteristics : BT.709
Matrix coefficients : BT.709
Audio #1
ID : 2
Format : AC-3
Format/Info : Audio Coding 3
Commercial name : Dolby Digital
Codec ID : A_AC3
Duration : 1 h 57 min
Bit rate mode : Constant
Bit rate : 384 kb/s
Channel(s) : 6 channels
Channel layout : L R C LFE Ls Rs
Sampling rate : 48.0 kHz
Frame rate : 31.250 FPS (1536 SPF)
Bit depth : 32 bits
Compression mode : Lossy
Stream size : 323 MiB (15%)
Title : MVO | (SDI Media)
Language : Russian
Service kind : Complete Main
Default : Yes
Forced : No
Audio #2
ID : 3
Format : AC-3
Format/Info : Audio Coding 3
Commercial name : Dolby Digital
Codec ID : A_AC3
Duration : 1 h 57 min
Bit rate mode : Constant
Bit rate : 448 kb/s
Channel(s) : 6 channels
Channel layout : L R C LFE Ls Rs
Sampling rate : 48.0 kHz
Frame rate : 31.250 FPS (1536 SPF)
Bit depth : 32 bits
Compression mode : Lossy
Stream size : 377 MiB (17%)
Title : Original
Language : English
Service kind : Complete Main
Default : No
Forced : No
Text #1
ID : 4
Format : UTF-8
Codec ID : S_TEXT/UTF8
Codec ID/Info : UTF-8 Plain Text
Duration : 1 h 54 min
Bit rate : 79 b/s
Count of elements : 1900
Stream size : 66.3 KiB (0%)
Title : Full
Language : English
Default : No
Forced : No
Text #2
ID : 5
Format : UTF-8
Codec ID : S_TEXT/UTF8
Codec ID/Info : UTF-8 Plain Text
Duration : 1 h 54 min
Bit rate : 84 b/s
Count of elements : 2065
Stream size : 70.9 KiB (0%)
Title : SDH
Language : English
Default : No
Forced : No
Menu
00:00:00.000 : :Chapter 1
00:09:41.495 : :Chapter 2
00:19:47.853 : :Chapter 3
00:31:13.621 : :Chapter 4
00:42:48.273 : :Chapter 5
00:51:17.199 : :Chapter 6
00:58:55.822 : :Chapter 7
01:06:27.733 : :Chapter 8
01:15:04.291 : :Chapter 9
01:26:05.618 : :Chapter 10
01:42:17.421 : :Chapter 11
01:50:55.774 : :Chapter 12
Релиз от: &
Автор релиза:
piratbit.org



Скачать Пираты Сомали через торрент https://i114.fastpic.ru/big/2021/0502/08/6b95b15e8c496a5fec0930e19b58ca08.png Скачать фильм Пираты Сомали через торрент бесплантно в хорошем качестве Описание: В 2008 году мечтающий стать журналистом Джей Бахадур по совету бывалого коллеги едет в Сомали, чтобы написать книгу об этой ... 10 10 1
Торрент: Зарегистрирован [2021-05-02 19:15] · скачан: 69 раз
Статус: √ проверено
Размер: 2.16 GB
Как cкачать? Как скачать Пираты Сомали через торрент | UTorrent

% Раздел Тема Автор DL S | L
Фильмы 2017 [DVDrip, WEB-DLRip, HDrip] (DUB, MVO) [ 2.13 GB ] Пираты Сомали / The Pirates of Somalia [2017 биография BDRip] MVO Twi7ter Скачать
3 | 0
Фильмы 2017 [DVDrip, WEB-DLRip, HDrip] (DUB, MVO) [ 1.41 GB ] Пираты Сомали / The Pirates of Somalia [2017 биография BDRip] MVO Twi7ter Скачать
2 | 1
T Релизы по Парсеру [Игры, Сериалы и Фильмы и другое...] [ 1.37 GB ] Пираты Сомали / The Pirates of Somalia [2017 биография HDRip] [MVO] [Официальный звук] killermax2013 Скачать
2 | 0
T Фильмы 2017 [DVDrip, WEB-DLRip, HDrip] (DUB, MVO) [ 2.18 GB ] Пираты Сомали / The Pirates of Somalia [2017 биография WEB-DLRip] [MVO] killermax2013 Скачать
1 | 0

28-11-2019 20:33  

Отключить всю рекламу на сайте

    Дорогой пользователь! Огромная просьба, поблагодарите релизера, оцените раздачу и оставьте свои комментарий, если Вы скачали Пираты Сомали через торрент бесплатно! Внесите свою лепту в развитие PiratBit!
    Комментировать посты могут только пользователи прошедшие не сложную регистрацию
    Показать сообщения:    

    Пираты Сомали через торрент
    Скачать бесплатно Пираты Сомали
    Пираты Сомали скачать торрент
    Пираты Сомали смотреть онлайн
    Cкачать фильм Пираты Сомали бесплатно
    Пираты Сомали скачать торрент в хорошем качестве
    Пираты Сомали смотреть онлайн бесплатно в хорошем качестве


    Вы не можете начинать темы
    Вы не можете отвечать на сообщения
    Вы не можете редактировать свои сообщения
    Вы не можете удалять свои сообщения
    Вы не можете голосовать в опросах
    Вы не можете прикреплять файлы к сообщениям
    Вы можете скачивать файлы