1 сезон

1 сезон

iTunes

1

iTunes

Кинопоиск HD

iTunes

13

1 сезон

RePack

30

Deluxe

ВАЖНО

ИГРА 18+

pack

RePack

MK11
pack

Легкие деньги

RePack

jed

RePack

fifa19

RePack

RDR2

RePack

NEED FOR SPEED™ PAYBACK

4 сезон

9 сезон

Бесстыжие 9 сезон

Все сериалы

все сериалы на PB.wtf

RePack

FAR CRY 5
  
Magnet ссылка

Моя мама / Anne / Серии: 1-80 (Мерве Гиргин Айтекин, Эмре Кабакушак) [2016-2017, Драма, WEB-DLRip] [Dub] (Русский Дубляж) piratbit.org

Моя мама через торрент piratbit.org

Размер: 47.41 GB | Добавлен: 10 д. назад | Торрент скачан:4 раза
Скачать  

03-05-2021 06:55 Моя мама Скачать торрент  

Моя мама / Anne

Год выпуска: 2016-2017
Производство: MedYapım, MF Yapım
Жанр: Драма
Продолжительность: 80 х ~ 00:46:07
Перевод: Профессиональный (дублированный) Русский Дубляж
Субтитры: Отсутствуют

Режиссёр: Мерве Гиргин Айтекин, Эмре Кабакушак

В ролях: Джансу Дере, Вахиде Перчин, Берен Гёкйылдыз, Гонджа Вуслатери, Беркай Атеш, Гюленай Калкан, Джан Нергиз, Ализе Гёрдюм, Ахсен Эроглу, Волкан Юнал и другие

Описание: Фотограф Зейнеп в ожидании приглашения на работу временно устраивается в школу учителем рисования. Однажды она замечает у одной из своих учениц Мелек синяки на руках и понимает, что девочка подвергается домашнему насилию, ей требуется помощь. Мелек живет в семье, но ее жизнь похожа на кошмар. Мать Шуле и отчим постоянно раздражаются на нее из-за любой мелочи. Шуле кажется, что, если бы не ребенок, ее мужчина относился бы к ней по-другому, и ее жизнь изменилась бы в лучшую сторону. Она совершенно не хочет принимать тот факт, что она не очень-то и нужна своему сожителю и без ребенка. Однажды Мелек в прямом смысле оказывается на свалке – семья просто выбрасывает ее на улицу как мусор. Материнский инстинкт просыпается в Зейнеп все сильнее, она очень хочет помочь ребенку и принимает решение забрать девочку к себе. Им предстоит пройти немало испытаний, и проблемы появятся не только от семьи Мелек…

Качество: WEB-DLRip
Формат: AVI
Видео кодек: XviD
Аудио кодек: AC3
Видео: XviD, 720x400 (16:9), 25 fps, ~ 1600 Kbps
Аудио: AC3, 48.0 KHz, 2 ch, 192 Kbps

Реклама: Отсутствует

Цитата:

Озвучивание: РООСОДКТ Русский Дубляж по заказу телеканала Домашний
Запись сериала и рип - rafwan123

Общее
Полное имя : E:\Anne.DUB.WEB-DLRip\Anne.E001.DUB.WEB-DLRip.avi
Формат : AVI
Формат/Информация : Audio Video Interleave
Размер файла : 594 Мбайт
Продолжительность : 46 м. 7 с.
Общий поток : 1802 Кбит/сек
Программа кодирования : VirtualDubMod 1.5.10.3 | www.virtualdub-fr.org || (build 2550/release)
Библиотека кодирования : VirtualDubMod build 2550/release

Видео
Идентификатор : 0
Формат : MPEG-4 Visual
Профиль формата : Advanced Simple@L5
Настройки формата : BVOP2 / Custom Matrix
Параметр BVOP формата : 2
Параметр QPel формата : Нет
Параметр GMC формата : Без точки перехода
Параметр матрицы формата : Выборочная
Идентификатор кодека : XVID
Идентификатор кодека/Подсказка : XviD
Продолжительность : 46 м. 7 с.
Битрейт : 1600 Кбит/сек
Ширина : 720 пикселей
Высота : 400 пикселей
Соотношение сторон : 16:9
Частота кадров : 25,000 кадров/сек
Цветовое пространство : YUV
Субдискретизация насыщенности : 4:2:0
Битовая глубина : 8 бит
Тип развёртки : Прогрессивная
Метод сжатия : С потерями
Бит/(Пиксели*Кадры) : 0.222
Размер потока : 528 Мбайт (89%)
Библиотека кодирования : XviD 1.2.1 (UTC 2008-12-04)

Аудио
Идентификатор : 1
Формат : AC-3
Формат/Информация : Audio Coding 3
Коммерческое название : Dolby Digital
Идентификатор кодека : 2000
Продолжительность : 46 м. 7 с.
Вид битрейта : Постоянный
Битрейт : 192 Кбит/сек
Каналы : 2 канала
ChannelLayout : L R
Частота : 48,0 КГц
Частота кадров : 31,250 кадров/сек (1536 SPF)
Метод сжатия : С потерями
Размер потока : 63,3 Мбайт (11%)
Выравнивание : Разделение по промежуткам
Продолжительность промежутка : 40 мс. (1,00 видеокадр)
Время предзагрузки промежутка : 500 мс.
ServiceKind/String : Complete Main
скриншот  скриншот  скриншот  
piratbit.org



Скачать Моя мама через торрент https://i114.fastpic.ru/big/2021/0419/cf/8e130f104c416457763ca927f1ca3bcf.jpg Скачать фильм Моя мама через торрент бесплантно в хорошем качестве Описание: Фотограф Зейнеп в ожидании приглашения на работу временно устраивается в школу учителем рисования. Однажды она замечает у одной ... 10 10 3
Info! Золотая раздача, скачанное не засчитывается.
Торрент: Зарегистрирован [2021-05-03 06:55] · скачан: 4 раз
Статус: √ проверено
Размер: 47.41 GB
Как cкачать? Как скачать Моя мама через торрент | UTorrent

28-11-2019 20:33  

Отключить всю рекламу на сайте

03-05-2021 17:55 Моя мама Скачать торрент  

Огромное спасибо!А то не где не скачать его что то для женского населения piratbit.org



04-05-2021 17:15 Моя мама Скачать торрент  

killermax2013 писал(а):

Моя мама / Anne

Продолжение можешь закинуть если есть?piratbit.org
Kkillermax2013 писал(а):

как будет то добавлю



    Дорогой пользователь! Огромная просьба, поблагодарите релизера, оцените раздачу и оставьте свои комментарий, если Вы скачали Моя мама через торрент бесплатно! Внесите свою лепту в развитие PiratBit!
    Комментировать посты могут только пользователи прошедшие не сложную регистрацию
    Показать сообщения:    

    Моя мама через торрент
    Скачать бесплатно Моя мама
    Моя мама скачать торрент
    Моя мама смотреть онлайн
    Cкачать фильм Моя мама бесплатно
    Моя мама скачать торрент в хорошем качестве
    Моя мама смотреть онлайн бесплатно в хорошем качестве


    Вы не можете начинать темы
    Вы не можете отвечать на сообщения
    Вы не можете редактировать свои сообщения
    Вы не можете удалять свои сообщения
    Вы не можете голосовать в опросах
    Вы не можете прикреплять файлы к сообщениям
    Вы можете скачивать файлы