1 сезон

1 сезон

iTunes

1

iTunes

Кинопоиск HD

iTunes

13

1 сезон

RePack

30

Deluxe

ВАЖНО

ИГРА 18+

pack

RePack

MK11
pack

Легкие деньги

RePack

jed

RePack

fifa19

RePack

RDR2

RePack

NEED FOR SPEED™ PAYBACK

4 сезон

9 сезон

Бесстыжие 9 сезон

Все сериалы

все сериалы на PB.wtf

RePack

FAR CRY 5
  
Magnet ссылка

Обитель / Сезон: 1 / Серии: 1-8 из 8 (Александр Велединский) [2020, Детектив, драма, исторический, WEBRip 1080p] piratbit.org

Обитель через торрент piratbit.org

Раздают: 17 [ 3 MB/s ] Качают: 6 [ 0 KB/s ]
Размер: 16.05 GB | Добавлен: 10 д. назад | Торрент скачан:217 раз
Скачать  

03-05-2021 07:33 Обитель Скачать торрент  

Обитель
Год выпуска: 2020
Страна: Россия
Жанр: Детектив, драма, исторический
Продолжительность: ~ 01:00:00
Перевод: Не требуется
Субтитры: Нет
Режиссёр: Александр Велединский
В ролях: Евгений Ткачук, Александра Ребенок, Сергей Безруков, Виктор Раков, Игорь Черневич, Виктор Добронравов, Владимир Стеклов, Юрий Кузнецов, Игорь Иванов, Яков Шамшин, Федор Лавров, Михаил Евланов, Елена Шевченко, Роман Агеев, Виктория Смирнова, Алексей Ведерников, Михаил Богдасаров, Аглая Смирнова, Денис Синявский, Кирилл Ульянов, Игорь Кожевин, Антон Момот, Кузьма Котрелев, Сергей Бызгу, Олег Сенченко, Владимир Шабельников, Александр Ткачук, Андрей Вергелис, Александр Гришин, Павел Басов, Андрей Полищук, Иван Солнцев, Евгений Серзин, Илья Дель, Вадим Степанцов, Наталия Курдюбова, Светлана Столярова, Арсений Ветров, Иван Григорьев, Евгений Санников, Валентин Бузанаков, Михаил Левченко, Константин Итунин, Евгений Антонов, Нина Ракова, Дэниэл Эрл Барнс, Антон Сбитенков
Описание: Время действия – конец 20-х годов 20 века, место действия – Соловецкий лагерь, печально знаменитые Соловки. Страх и отвага, отчаянное желание выжить, понять главное в себе и жизни – все это становится фоном страстной любовной истории двух героев: заключенного Артема Горяинова и чекистки Галины. Это любовь на краю пропасти, ведь гражданский муж Галины – всесильный начальник лагеря Федор Эйхманис...
Реклама: Нет
Сэмпл: http://multi-up.com/1278117
Качество: WEBRip 1080p
Формат: MKV
Видео кодек: H.264
Аудио кодек: AC3
Видео: H.264 / AVC, 1920x1080 (16:9), 25,000 кадров/сек, ~ 4870 Кбит/сек, 0.094 bit/pixel
Аудио: AC3, 48,0 kHz, 2 ch, 192 Кбит/сек
Общее
Уникальный идентификатор : 187145545710521011301652281395748359973 (0x8CCAEBC98E7769359AC1A0C9F1A14F25)
Полное имя : E:\Obitelj.2021.WEB-DL.(1080p).shevanlk\E01.Obitelj.mkv
Формат : Matroska
Версия формата : Version 2
Размер файла : 2,21 Гбайт
Продолжительность : 1 ч. 1 м.
Режим общего битрейта : Переменный
Общий поток : 5 166 Кбит/сек
Дата кодирования : UTC 2021-04-30 19:18:59
Программа кодирования : mkvmerge v7.8.0 ('River Man') 32bit built on Apr 3 2015 12:11:22
Библиотека кодирования : libebml v1.3.1 + libmatroska v1.4.2

Видео
Идентификатор : 1
Формат : AVC
Формат/Информация : Advanced Video Codec
Профиль формата : High@L4
Настройки формата : CABAC / 2 Ref Frames
Параметр CABAC формата : Да
Параметр RefFrames формата : 2 кадра
Идентификатор кодека : V_MPEG4/ISO/AVC
Продолжительность : 1 ч. 1 м.
Вид битрейта : Переменный
Битрейт : 4 871 Кбит/сек
Максимальный битрейт : 8 000 Кбит/сек
Ширина : 1 920 пикселей
Высота : 1 080 пикселей
Соотношение сторон : 16:9
Режим частоты кадров : Постоянный
Частота кадров : 25,000 кадров/сек
Цветовое пространство : YUV
Субдискретизация насыщенности : 4:2:0
Битовая глубина : 8 бит
Тип развёртки : Прогрессивная
Бит/(Пиксели*Кадры) : 0.094
Размер потока : 2,08 Гбайт (94%)
Default : Да
Forced : Нет

Аудио
Идентификатор : 2
Формат : AC-3
Формат/Информация : Audio Coding 3
Коммерческое название : Dolby Digital
Идентификатор кодека : A_AC3
Продолжительность : 1 ч. 1 м.
Вид битрейта : Постоянный
Битрейт : 192 Кбит/сек
Каналы : 2 канала
Channel layout : L R
Частота : 48,0 КГц
Частота кадров : 31,250 кадров/сек (1536 SPF)
Метод сжатия : С потерями
Размер потока : 84,0 Мбайт (4%)
Service kind : Complete Main
Default : Да
Forced : Нет

скриншот  скриншот  скриншот  

piratbit.org



Скачать Обитель через торрент https://i114.fastpic.ru/big/2021/0429/12/add8d6af8c18f2d4dc1359cb07a83812.jpg Скачать фильм Обитель через торрент бесплантно в хорошем качестве Описание: Время действия – конец 20-х годов 20 века, место действия – Соловецкий лагерь, печально знаменитые Соловки. Страх и отвага, ... 10 10 4
Торрент: Зарегистрирован [2021-05-03 07:33] · скачан: 217 раз
Статус: √ проверено
Размер: 16.05 GB
Как cкачать? Как скачать Обитель через торрент | UTorrent

28-11-2019 20:33  

Отключить всю рекламу на сайте

    Дорогой пользователь! Огромная просьба, поблагодарите релизера, оцените раздачу и оставьте свои комментарий, если Вы скачали Обитель через торрент бесплатно! Внесите свою лепту в развитие PiratBit!
    Комментировать посты могут только пользователи прошедшие не сложную регистрацию
    Показать сообщения:    

    Обитель через торрент
    Скачать бесплатно Обитель
    Обитель скачать торрент
    Обитель смотреть онлайн
    Cкачать фильм Обитель бесплатно
    Обитель скачать торрент в хорошем качестве
    Обитель смотреть онлайн бесплатно в хорошем качестве


    Вы не можете начинать темы
    Вы не можете отвечать на сообщения
    Вы не можете редактировать свои сообщения
    Вы не можете удалять свои сообщения
    Вы не можете голосовать в опросах
    Вы не можете прикреплять файлы к сообщениям
    Вы можете скачивать файлы