1 сезон

1 сезон

iTunes

1

iTunes

Кинопоиск HD

iTunes

13

1 сезон

RePack

30

Deluxe

ВАЖНО

ИГРА 18+

pack

RePack

MK11
pack

Легкие деньги

RePack

jed

RePack

fifa19

RePack

RDR2

RePack

NEED FOR SPEED™ PAYBACK

4 сезон

9 сезон

Бесстыжие 9 сезон

Все сериалы

все сериалы на PB.wtf

RePack

FAR CRY 5
  
Magnet ссылка

Ганзель, Гретель и Агентство Магии / Secret Magic Control Agency (Алексей Цицилин) [2021, мультфильм, комедия, фэнтези, WEB-DLRip-AVC] [Локализованный видеоряд] Dub piratbit.org

Ганзель, Гретель и Агентство Магии через торрент piratbit.org

Раздают: 67 [ 1 MB/s ]
Размер: 1.44 GB | Добавлен: 10 д. назад | Торрент скачан:123 раза
Скачать  

03-05-2021 14:18 Ганзель, Гретель и Агентство Магии Скачать торрент  

Ганзель, Гретель и Агентство Магии
Secret Magic Control Agency

Страна: Россия, США
Жанр: мультфильм, комедия, фэнтези, приключения, семейный
Год выпуска: 2021
Продолжительность: 01:39:41

Перевод: Профессиональный (полное дублирование) [Невафильм]
Субтитры: нет
Оригинальная аудиодорожка: нет

Режиссер: Алексей Цицилин

В ролях: Валерий Смекалов, Ирина Обрезкова, Алексей Макрецкий, Регина Щукина, Ксения Бржезовская, Юлия Зоркина

Описание: Гретель — одна из лучших агентов сверхсекретного Отдела Магической Безопасности. Именно ей поручают расследовать преступление века — загадочное исчезновение Короля. И без того непростое дело усложняется тем, что ее напарником становится родной брат Ганзель — известный мошенник, бросающий тень на безупречную репутацию суперагента. Но, возможно, именно его проделки помогут найти Короля и спасти Королевство. Вместе им предстоит проникнуть в жуткие тайны волшебного мира, сразиться с силами зла и бросить вызов могущественной Ведьме.



Релиз:

Автор рипа: stalkerok

Сэмпл

Качество видео: WEB-DLRip-AVC | Исходник: Secret.Magic.Control.Agency.2021.1080p.KP.WEB-DL.AAC2.0.H.264-EniaHD (thx karvai)
Формат видео: MKV
Видео кодек: AVC
Аудио кодек: AAC
Видео: AVC, 1877 Кбит/сек, 1046x438 (2.40:1), 25 кадр/сек
Аудио: AAC, 192 Кбит/сек, 48 КГц, 2.0 - русский
---[Information] [03.05.2021 16:47:13] x264 [info]: frame I:1775 Avg QP:15.79 size: 63427
---[Information] [03.05.2021 16:47:13] x264 [info]: frame P:39754 Avg QP:18.06 size: 18275
---[Information] [03.05.2021 16:47:13] x264 [info]: frame B:108005 Avg QP:21.29 size: 5228
---[Information] [03.05.2021 16:47:13] x264 [info]: consecutive B-frames: 3.6% 4.4% 9.0% 63.6% 5.4% 6.1% 1.0% 4.1% 1.9% 0.1% 0.0% 0.1% 0.1% 0.2% 0.4%

General
Unique ID : 265578542168585414875852405471408758780 (0xC7CC9112EB0E9306CCD9356262771FFC)
Complete name : J:\Secret.Magic.Control.Agency.2021\Secret.Magic.Control.Agency.2021.WEB-DLRip.x264.Rus.stalkerok.New-Team.mkv
Format : Matroska
Format version : Version 4
File size : 1.44 GiB
Duration : 1 h 39 min
Overall bit rate : 2 072 kb/s
Movie name : Secret Magic Control Agency (2021) | Rip by stalkerok
Encoded date : UTC 2021-05-03 14:00:59
Writing application : mkvmerge v56.1.0 ('My Friend') 64-bit
Writing library : libebml v1.4.2 + libmatroska v1.6.4

Video
ID : 1
Format : AVC
Format/Info : Advanced Video Codec
Format profile : High@L4.1
Format settings : CABAC / 12 Ref Frames
Format settings, CABAC : Yes
Format settings, Reference frames : 12 frames
Codec ID : V_MPEG4/ISO/AVC
Duration : 1 h 39 min
Bit rate : 1 877 kb/s
Width : 1 046 pixels
Height : 438 pixels
Display aspect ratio : 2.40:1
Frame rate mode : Constant
Frame rate : 25.000 FPS
Color space : YUV
Chroma subsampling : 4:2:0
Bit depth : 8 bits
Scan type : Progressive
Bits/(Pixel*Frame) : 0.164
Stream size : 1.31 GiB (91%)
Title : Rip by stalkerok
Writing library : x264 core 161 r3043+53M 5ab00ad t_mod_New [(8 & 10)-bit@all X86_64]
Encoding settings : cabac=1 / ref=12 / deblock=1:-1:-1 / analyse=0x3:0x133 / me=umh / subme=10 / psy=1 / fade_compensate=0.00 / psy_rd=1.00:0.00 / mixed_ref=1 / me_range=32 / chroma_me=1 / trellis=2 / 8x8dct=1 / cqm=0 / deadzone=21,11 / fast_pskip=0 / chroma_qp_offset=-2 / threads=12 / lookahead_threads=3 / sliced_threads=0 / nr=0 / decimate=1 / interlaced=0 / bluray_compat=0 / constrained_intra=0 / fgo=0 / bframes=14 / b_pyramid=2 / b_adapt=2 / b_bias=0 / direct=3 / weightb=1 / open_gop=0 / weightp=2 / keyint=250 / keyint_min=25 / scenecut=40 / intra_refresh=0 / rc_lookahead=60 / rc=crf / mbtree=0 / crf=18.4000 / qcomp=0.65 / qpmin=0:0:0 / qpmax=69:69:69 / qpstep=4 / vbv_maxrate=50000 / vbv_bufsize=62500 / crf_max=0.0 / nal_hrd=none / filler=0 / ip_ratio=1.40 / pb_ratio=1.30 / aq=3:0.80 / aq-sensitivity=10.00 / aq-factor=1.00:1.00:1.00 / aq2=0 / aq3=0
Default : Yes
Forced : No

Audio
ID : 2
Format : AAC LC
Format/Info : Advanced Audio Codec Low Complexity
Codec ID : A_AAC-2
Duration : 1 h 39 min
Bit rate : 192 kb/s
Channel(s) : 2 channels
Channel layout : L R
Sampling rate : 48.0 kHz
Frame rate : 46.875 FPS (1024 SPF)
Compression mode : Lossy
Stream size : 137 MiB (9%)
Language : Russian
Default : Yes
Forced : No
piratbit.org



Скачать Ганзель, Гретель и Агентство Магии через торрент http://i6.imageban.ru/out/2017/09/18/2ff75c0c358795c5946784cc1680714d.png Скачать фильм Ганзель, Гретель и Агентство Магии через торрент бесплантно в хорошем качестве Описание: Гретель — одна из лучших агентов сверхсекретного Отдела Магической Безопасности. Именно ей поручают расследовать преступление ... 10 10 6
Info! Золотая раздача, скачанное не засчитывается.
Торрент: Зарегистрирован [2021-05-03 14:18] · скачан: 123 раз
Статус: T временная
Размер: 1.44 GB
Как cкачать? Как скачать Ганзель, Гретель и Агентство Магии через торрент | UTorrent

28-11-2019 20:33  

Отключить всю рекламу на сайте

03-05-2021 15:54 Ганзель, Гретель и Агентство Магии Скачать торрент  

Спасибо! Как актуально в праздники!piratbit.org



    Дорогой пользователь! Огромная просьба, поблагодарите релизера, оцените раздачу и оставьте свои комментарий, если Вы скачали Ганзель, Гретель и Агентство Магии через торрент бесплатно! Внесите свою лепту в развитие PiratBit!
    Комментировать посты могут только пользователи прошедшие не сложную регистрацию
    Показать сообщения:    

    Ганзель, Гретель и Агентство Магии через торрент
    Скачать бесплатно Ганзель, Гретель и Агентство Магии
    Ганзель, Гретель и Агентство Магии скачать торрент
    Ганзель, Гретель и Агентство Магии смотреть онлайн
    Cкачать фильм Ганзель, Гретель и Агентство Магии бесплатно
    Ганзель, Гретель и Агентство Магии скачать торрент в хорошем качестве
    Ганзель, Гретель и Агентство Магии смотреть онлайн бесплатно в хорошем качестве


    Вы не можете начинать темы
    Вы не можете отвечать на сообщения
    Вы не можете редактировать свои сообщения
    Вы не можете удалять свои сообщения
    Вы не можете голосовать в опросах
    Вы не можете прикреплять файлы к сообщениям
    Вы можете скачивать файлы