1 сезон

1 сезон

iTunes

1

iTunes

Кинопоиск HD

iTunes

13

1 сезон

RePack

30

Deluxe

ВАЖНО

ИГРА 18+

pack

RePack

MK11
pack

Легкие деньги

RePack

jed

RePack

fifa19

RePack

RDR2

RePack

NEED FOR SPEED™ PAYBACK

4 сезон

9 сезон

Бесстыжие 9 сезон

Все сериалы

все сериалы на PB.wtf

RePack

FAR CRY 5
  
Magnet ссылка

Выход / Eksiteu / Exit (Лу Ян) [2019, Боевик, комедия, HDRip-AVC] DUB [iTunes] от MediaBit piratbit.org

Выход через торрент piratbit.org

Раздают: 2 [ 0 KB/s ]
Размер: 1.44 GB | Добавлен: 9 д. назад | Торрент скачан:14 раз
Скачать  

03-05-2021 17:21 Выход Скачать торрент  


Выход / Eksiteu / Exit
Информация о фильме:
Название: Выход
Оригинальное название: Eksiteu / Exit
Год выхода: 2019
Жанр: Боевик, комедия
Режиссер: Ли Сан-гын

В ролях: Чо Джон-сок, Лим Юн-а, Ко Ду-щим, Пак Ин-хван, Ким Джи-ён, Кан Ги-ён, Ким Джон-гу, Ким Бён-сун, Хван Хё-ын, Ли Бон-нён

Описание: 30-летний неудачник Ён-нам никак не может устроиться на нормальную работу, а единственное, в чём он преуспел, — это скалолазание. Жизнь бедолаги похожа на катастрофу: приходится жить с родителями, отбиваться от постоянных нападок старшей сестры, и даже малолетний племянник его стыдится. Большой банкет по поводу 70-летия матери Ён-нама «по странному стечению обстоятельств» проходит на одном из верхних этажей здания, где работает И-джу, его безответная любовь ещё с колледжа. Когда праздник уже завершился, неугомонные родственники никак не хотят расходиться, а сам парень готов сгореть от стыда, по городу начинает распространяться ядовитый газ. Единственный способ не отравиться — попасть на крышу, но дверь заперта, и теперь бесполезные, по мнению семейства, навыки Ён-нама могут спасти им всем жизнь.



Страна: Южная Корея
Студия: CJ Entertainment
Продолжительность: 01:43:38
Перевод: Дублированное - iTunes



Информация о файле:
Кодек: AVC
Формат: MKV
Качество: HDRip-AVC
Видео: MPEG-4 AVC, 1024x428, 24.000 fps, 1610 kbps
Аудио RU: AC3, 6 ch, 48 kHz, 384 kbps
Субтитры: English
Навигация по главам: Да

x264 info: frame I:1503 Avg QP:15.16 size: 64258
x264 info: frame P:38602 Avg QP:18.51 size: 17192
x264 info: frame B:109134 Avg QP:22.45 size: 4502
x264 info: consecutive B-frames: 3.4% 5.2% 11.5% 40.2% 16.5% 19.4% 2.2% 0.8% 0.4% 0.2% 0.2%
General
Unique ID : 252556787629614001017748838623227723146 (0xBE00AB01BF51081EE53E84A78DD8BD8A)
Complete name : D:uTorrentРипы_от_wolf1245_MediaBitExit.2019.DUB.iTunes.HDRip-AVC.[wolf1245.MediaBit].mkv
Format : Matroska
Format version : Version 4
File size : 1.44 GiB
Duration : 1 h 43 min
Overall bit rate : 1 996 kb/s
Movie name : Exit.2019.DUB.iTunes.HDRip-AVC.[wolf1245.MediaBit]
Encoded date : UTC 2021-05-03 17:02:36
Writing application : mkvmerge v56.1.0 ('My Friend') 64-bit
Writing library : libebml v1.4.2 + libmatroska v1.6.4
Video
ID : 1
Format : AVC
Format/Info : Advanced Video Codec
Format profile : High@L4.1
Format settings : CABAC / 12 Ref Frames
Format settings, CABAC : Yes
Format settings, Reference frames : 12 frames
Codec ID : V_MPEG4/ISO/AVC
Duration : 1 h 43 min
Bit rate : 1 610 kb/s
Width : 1 024 pixels
Height : 428 pixels
Display aspect ratio : 2.40:1
Frame rate mode : Constant
Frame rate : 24.000 FPS
Color space : YUV
Chroma subsampling : 4:2:0
Bit depth : 8 bits
Scan type : Progressive
Bits/(Pixel*Frame) : 0.153
Stream size : 1.17 GiB (81%)
Title : .[wolf1245.MediaBit]
Writing library : x264 core 157 r2958 57baac4
Encoding settings : cabac=1 / ref=12 / deblock=1:-3:-3 / analyse=0x3:0x133 / me=umh / subme=11 / psy=1 / psy_rd=1.02:0.07 / mixed_ref=1 / me_range=48 / chroma_me=1 / trellis=2 / 8x8dct=1 / cqm=0 / deadzone=21,11 / fast_pskip=1 / chroma_qp_offset=-3 / threads=10 / lookahead_threads=2 / sliced_threads=0 / nr=0 / decimate=1 / interlaced=0 / bluray_compat=0 / constrained_intra=0 / bframes=10 / b_pyramid=2 / b_adapt=2 / b_bias=0 / direct=3 / weightb=1 / open_gop=0 / weightp=2 / keyint=240 / keyint_min=24 / scenecut=40 / intra_refresh=0 / rc_lookahead=100 / rc=2pass / mbtree=1 / bitrate=1610 / ratetol=1.0 / qcomp=0.60 / qpmin=0 / qpmax=69 / qpstep=4 / cplxblur=20.0 / qblur=0.5 / vbv_maxrate=50000 / vbv_bufsize=62500 / nal_hrd=none / filler=0 / ip_ratio=1.40 / aq=1:0.80
Language : Korean
Default : Yes
Forced : No
Audio
ID : 2
Format : AC-3
Format/Info : Audio Coding 3
Commercial name : Dolby Digital
Codec ID : A_AC3
Duration : 1 h 43 min
Bit rate mode : Constant
Bit rate : 384 kb/s
Channel(s) : 6 channels
Channel layout : L R C LFE Ls Rs
Sampling rate : 48.0 kHz
Frame rate : 31.250 FPS (1536 SPF)
Compression mode : Lossy
Stream size : 285 MiB (19%)
Title : DUB | (iTunes)
Language : Russian
Service kind : Complete Main
Default : Yes
Forced : No
Text
ID : 3
Format : UTF-8
Codec ID : S_TEXT/UTF8
Codec ID/Info : UTF-8 Plain Text
Duration : 1 h 39 min
Bit rate : 43 b/s
Count of elements : 1288
Stream size : 31.6 KiB (0%)
Language : English
Default : No
Forced : No
Menu
00:00:00.000 : :绗?01 绔?
00:08:35.792 : :绗?02 绔?
00:17:02.750 : :绗?03 绔?
00:25:11.958 : :绗?04 绔?
00:33:40.042 : :绗?05 绔?
00:41:33.500 : :绗?06 绔?
00:51:15.542 : :绗?07 绔?
00:59:42.875 : :绗?08 绔?
01:09:06.042 : :绗?09 绔?
01:18:06.833 : :绗?10 绔?
01:26:13.167 : :绗?11 绔?
01:35:41.333 : :绗?12 绔?
Релиз от: &
Автор релиза:
piratbit.org



Скачать Выход через торрент https://i114.fastpic.ru/big/2021/0503/11/f4c9c46cc006e47f60409f7a25b7c311.png Скачать фильм Выход через торрент бесплантно в хорошем качестве Описание: 30-летний неудачник Ён-нам никак не может устроиться на нормальную работу, а единственное, в чём он преуспел, — это ... 10 10 2
Торрент: Зарегистрирован [2021-05-03 17:21] · скачан: 14 раз
Статус: √ проверено
Размер: 1.44 GB
Как cкачать? Как скачать Выход через торрент | UTorrent

28-11-2019 20:33  

Отключить всю рекламу на сайте

    Дорогой пользователь! Огромная просьба, поблагодарите релизера, оцените раздачу и оставьте свои комментарий, если Вы скачали Выход через торрент бесплатно! Внесите свою лепту в развитие PiratBit!
    Комментировать посты могут только пользователи прошедшие не сложную регистрацию
    Показать сообщения:    

    Выход через торрент
    Скачать бесплатно Выход
    Выход скачать торрент
    Выход смотреть онлайн
    Cкачать фильм Выход бесплатно
    Выход скачать торрент в хорошем качестве
    Выход смотреть онлайн бесплатно в хорошем качестве


    Вы не можете начинать темы
    Вы не можете отвечать на сообщения
    Вы не можете редактировать свои сообщения
    Вы не можете удалять свои сообщения
    Вы не можете голосовать в опросах
    Вы не можете прикреплять файлы к сообщениям
    Вы можете скачивать файлы