1 сезон

1 сезон

iTunes

1

iTunes

Кинопоиск HD

iTunes

13

1 сезон

RePack

30

Deluxe

ВАЖНО

ИГРА 18+

pack

RePack

MK11
pack

Легкие деньги

RePack

jed

RePack

fifa19

RePack

RDR2

RePack

NEED FOR SPEED™ PAYBACK

4 сезон

9 сезон

Бесстыжие 9 сезон

Все сериалы

все сериалы на PB.wtf

RePack

FAR CRY 5
  
Magnet ссылка

Айла: Дочь войны / Ayla: The Daughter of War (Джан Улкай) [2017, драма, WEB-DL 1080p] [MVO] (FocusX) piratbit.org

Айла: Дочь войны через торрент piratbit.org

Раздают: 22 [ 911 KB/s ] Качают: 5 [ 422 KB/s ]
Размер: 7.81 GB | Добавлен: 9 д. назад | Торрент скачан:163 раза
Скачать  

03-05-2021 17:42 Айла: Дочь войны Скачать торрент  

Айла: Дочь войны / Ayla: The Daughter of War
Год выпуска: 2017
Страна: Турция, Корея Южная
Жанр: драма
Продолжительность: 02:03:51
Перевод: Профессиональный (многоголосый закадровый) | FocusX
Субтитры: нет

Режиссер: Джан Улкай

В ролях: Исмаил Хаджиоглу, Ким Соль, Четин Текиндор, Ли Гён-джин, Али Атай, Дамла Сонмез, Мурат Йылдырым, Танер Бирсел, Кейд Кэрредин, Ким Биоунгсоон и др.

Описание: Сулейман из турецкой бригады «Северная звезда», которая принимала участие в Корейской войне в составе американской дивизии из войск ООН, спасает замерзающую корейскую девочку, называет её Айлой и берёт к себе в расположение.

*Основано на реальной истории

rating

Качество видео: WEB-DL 1080p
Формат видео: MKV
Видео: MPEG-4 AVC, 7 571 Кбит/с, 1920x800, 24 Кадр/с
Аудио: 48.0 KHz, AC3, 6 ch, 640 Kbps - FocusX
Аудио: 48.0 KHz, AC3, 6 ch, 640 Kbps - турецкий
General
Unique ID : 113584849301841613888981155412345408387 (0x5573A570A260AF1B86CC88A1D74CCB83)
Complete name : G:\Ayla.The.Daughter.of.War.2017.WEB-DL.1080p.FocusX.mkv
Format : Matroska
Format version : Version 4 / Version 2
File size : 7.81 GiB
Duration : 2h 3mn
Overall bit rate mode : Constant
Overall bit rate : 9 030 Kbps
Movie name : Ayla The Daughter of War @ FocusX
Encoded date : UTC 2021-03-14 14:00:13
Writing application : mkvmerge v53.0.0 ('Fool's Gold') 64-bit
Writing library : libebml v1.4.1 + libmatroska v1.6.2

Video
ID : 1
Format : AVC
Format/Info : Advanced Video Codec
Format profile : High@L4
Format settings, CABAC : Yes
Format settings, ReFrames : 4 frames
Codec ID : V_MPEG4/ISO/AVC
Duration : 2h 3mn
Bit rate mode : Constant
Bit rate : 7 571 Kbps
Nominal bit rate : 10 000 Kbps
Width : 1 920 pixels
Height : 800 pixels
Display aspect ratio : 2.40:1
Frame rate mode : Constant
Frame rate : 24.000 fps
Color space : YUV
Chroma subsampling : 4:2:0
Bit depth : 8 bits
Scan type : Progressive
Bits/(Pixel*Frame) : 0.205
Stream size : 6.55 GiB (84%)
Default : Yes
Forced : No
Color range : Limited
Color primaries : BT.709
Transfer characteristics : BT.709
Matrix coefficients : BT.709

Audio #1
ID : 2
Format : AC-3
Format/Info : Audio Coding 3
Mode extension : CM (complete main)
Format settings, Endianness : Big
Codec ID : A_AC3
Duration : 2h 3mn
Bit rate mode : Constant
Bit rate : 640 Kbps
Channel(s) : 6 channels
Channel positions : Front: L C R, Side: L R, LFE
Sampling rate : 48.0 KHz
Compression mode : Lossy
Stream size : 567 MiB (7%)
Title : MVO FocusX
Language : Russian
Default : Yes
Forced : No

Audio #2
ID : 3
Format : AC-3
Format/Info : Audio Coding 3
Mode extension : CM (complete main)
Format settings, Endianness : Big
Codec ID : A_AC3
Duration : 2h 3mn
Bit rate mode : Constant
Bit rate : 640 Kbps
Channel(s) : 6 channels
Channel positions : Front: L C R, Side: L R, LFE
Sampling rate : 48.0 KHz
Compression mode : Lossy
Stream size : 567 MiB (7%)
Language : English
Default : No
Forced : No
скриншот   скриншот   скриншот   скриншот   скриншот   скриншот  
piratbit.org



Скачать Айла: Дочь войны через торрент https://i114.fastpic.ru/big/2021/0411/7f/bc195fb4357fb3d8c929c815300dd07f.jpg Скачать фильм Айла: Дочь войны через торрент бесплантно в хорошем качестве Описание: Сулейман из турецкой бригады «Северная звезда», которая принимала участие в Корейской войне в составе американской дивизии из ... 10 10 5
Торрент: Зарегистрирован [2021-05-03 17:42] · скачан: 163 раз
Статус: √ проверено
Размер: 7.81 GB
Как cкачать? Как скачать Айла: Дочь войны через торрент | UTorrent

28-11-2019 20:33  

Отключить всю рекламу на сайте

03-05-2021 20:54 Айла: Дочь войны Скачать торрент  

душещипательный фильм piratbit.org



04-05-2021 17:37 Айла: Дочь войны Скачать торрент  

Даже Якобович снялся)piratbit.org



05-05-2021 14:13 Айла: Дочь войны Скачать торрент  


Видео про реальную историюpiratbit.org



    Дорогой пользователь! Огромная просьба, поблагодарите релизера, оцените раздачу и оставьте свои комментарий, если Вы скачали Айла: Дочь войны через торрент бесплатно! Внесите свою лепту в развитие PiratBit!
    Комментировать посты могут только пользователи прошедшие не сложную регистрацию
    Показать сообщения:    

    Айла: Дочь войны через торрент
    Скачать бесплатно Айла: Дочь войны
    Айла: Дочь войны скачать торрент
    Айла: Дочь войны смотреть онлайн
    Cкачать фильм Айла: Дочь войны бесплатно
    Айла: Дочь войны скачать торрент в хорошем качестве
    Айла: Дочь войны смотреть онлайн бесплатно в хорошем качестве


    Вы не можете начинать темы
    Вы не можете отвечать на сообщения
    Вы не можете редактировать свои сообщения
    Вы не можете удалять свои сообщения
    Вы не можете голосовать в опросах
    Вы не можете прикреплять файлы к сообщениям
    Вы можете скачивать файлы