1 сезон

1 сезон

iTunes

1

iTunes

Кинопоиск HD

iTunes

13

1 сезон

RePack

30

GLOBAL

ВАЖНО

ИГРА 18+

pack

RePack

MK11
pack

Легкие деньги

RePack

jed

RePack

fifa19

RePack

RDR2

RePack

NEED FOR SPEED™ PAYBACK

4 сезон

9 сезон

Бесстыжие 9 сезон

Все сериалы

все сериалы на PB.wtf

RePack

FAR CRY 5
  
Magnet ссылка

Команда разрушителей / The Wrecking Crew (Фил Карлсон) [1968 г., Боевик, триллер, драма, комедия, приключения, BDRip 720p, Профессиональный (многоголосый)] от ExKinoRay piratbit.org

Команда разрушителей через торрент piratbit.org

Раздают: 1 [ 26 KB/s ]
Размер: 6.51 GB | Добавлен: 11 д. назад | Торрент скачан:7 раз
Скачать  

04-05-2021 06:31 Команда разрушителей Скачать торрент  

Команда разрушителей / The Wrecking Crew
Год выпуска: 1968
Страна: США
Жанр: Боевик, триллер, драма, комедия, приключения
Продолжительность: 01:44:59
Перевод: Профессиональный (многоголосый)
Субтитры: Английские

Режиссер: Фил Карлсон

Премьера в мире: 25 декабря 1968

rating

В ролях: Дин Мартин, Эльке Зоммер, Шэрон Тейт, Нэнси Кван, Найджел Грин, Тина Луиз, Джон Ларч, Джон Брашиа, Уивер Леви, Вильгельм фон Хомбург

Описание: Граф Контини украл столько золота, что спровоцировал экономический кризис на мировых рынках. Опытный агент Мэтт Хелм пытается помешать ему. Его помощницей становится скандинавская шпионка Фрейя Карлсон.

Качество: BDRip 720p
Формат: MKV
Видео кодек: MPEG4
Аудио кодек: AC3
Видео: 8500 Кбит/с, 1280x720, 23.976 кадра/сек
Аудио#1: Русский (AC3, 2 ch, 192 Кбит/с, 48 КГц)
Аудио#2: Английский (AC3, 2 ch, 192 Кбит/с, 48 КГц)

x264 [info]: profile High, level 4.1
x264 [info]: frame I:980 Avg QP:17.07 size:166404
x264 [info]: frame P:30831 Avg QP:19.45 size: 69542
x264 [info]: frame B:119174 Avg QP:20.86 size: 36786
-----
Общее
Уникальный идентификатор : 186357194623072173252298358055404517868 (0x8C331713EAB8A2B89465CBC6ACD339EC)
Полное имя : D:\EKR\Wrecking.Crew.1968.BDRip720p.ExKinoRay.mkv
Формат : Matroska
Версия формата : Version 2
Размер файла : 6,51 Гбайт
Продолжительность : 1 ч. 44 м.
Общий поток : 8884 Кбит/сек
Дата кодирования : UTC 2021-05-04 04:41:48
Программа кодирования : mkvmerge v7.8.0 ('River Man') 32bit built on Apr 3 2015 12:11:22
Библиотека кодирования : libebml v1.3.1 + libmatroska v1.4.2

Видео
Идентификатор : 1
Формат : AVC
Формат/Информация : Advanced Video Codec
Профиль формата : High@L4.1
Настройки формата : CABAC / 9 Ref Frames
Параметр CABAC формата : Да
Параметр RefFrames формата : 9 кадров
Идентификатор кодека : V_MPEG4/ISO/AVC
Продолжительность : 1 ч. 44 м.
Битрейт : 8500 Кбит/сек
Ширина : 1280 пикселей
Высота : 720 пикселей
Соотношение сторон : 16:9
Режим частоты кадров : Постоянный
Частота кадров : 23,976 (24000/1001) кадра/сек
Цветовое пространство : YUV
Субдискретизация насыщенности : 4:2:0
Битовая глубина : 8 бит
Тип развёртки : Прогрессивная
Бит/(Пиксели*Кадры) : 0.385
Размер потока : 6,10 Гбайт (94%)
Библиотека кодирования : x264 core 152 r2851 ba24899
Настройки программы : cabac=1 / ref=9 / deblock=1:-3:-2 / analyse=0x3:0x113 / me=umh / subme=10 / psy=1 / psy_rd=1.00:0.10 / mixed_ref=1 / me_range=32 / chroma_me=1 / trellis=2 / 8x8dct=1 / cqm=0 / deadzone=21,11 / fast_pskip=0 / chroma_qp_offset=-3 / threads=6 / lookahead_threads=1 / sliced_threads=0 / nr=0 / decimate=0 / interlaced=0 / bluray_compat=0 / constrained_intra=0 / bframes=12 / b_pyramid=2 / b_adapt=2 / b_bias=0 / direct=3 / weightb=1 / open_gop=0 / weightp=2 / keyint=240 / keyint_min=23 / scenecut=40 / intra_refresh=0 / rc=2pass / mbtree=0 / bitrate=8500 / ratetol=1.0 / qcomp=0.60 / qpmin=0 / qpmax=69 / qpstep=4 / cplxblur=20.0 / qblur=0.5 / ip_ratio=1.40 / pb_ratio=1.30 / aq=3:1.00
Язык : English
Default : Да
Forced : Нет
Цветовой диапазон : Limited
Основные цвета : BT.709
Характеристики трансфера : BT.709
Коэффициенты матрицы : BT.709

Аудио #1
Идентификатор : 2
Формат : AC-3
Формат/Информация : Audio Coding 3
Коммерческое название : Dolby Digital
Идентификатор кодека : A_AC3
Продолжительность : 1 ч. 44 м.
Вид битрейта : Постоянный
Битрейт : 192 Кбит/сек
Каналы : 2 канала
Channel layout : L R
Частота : 48,0 КГц
Частота кадров : 31,250 кадров/сек (1536 SPF)
Битовая глубина : 16 бит
Метод сжатия : С потерями
Размер потока : 144 Мбайт (2%)
Заголовок : Профессиональный многоголосый
Язык : Russian
ServiceKind/String : Complete Main
Default : Да
Forced : Нет

Аудио #2
Идентификатор : 3
Формат : AC-3
Формат/Информация : Audio Coding 3
Коммерческое название : Dolby Digital
Идентификатор кодека : A_AC3
Продолжительность : 1 ч. 44 м.
Вид битрейта : Постоянный
Битрейт : 192 Кбит/сек
Каналы : 2 канала
Channel layout : L R
Частота : 48,0 КГц
Частота кадров : 31,250 кадров/сек (1536 SPF)
Битовая глубина : 16 бит
Метод сжатия : С потерями
Размер потока : 144 Мбайт (2%)
Язык : English
ServiceKind/String : Complete Main
Default : Нет
Forced : Нет

Текст
Идентификатор : 4
Формат : UTF-8
Идентификатор кодека : S_TEXT/UTF8
Идентификатор кодека/Информация : UTF-8 Plain Text
Язык : English
Default : Нет
Forced : Нет

Меню
00:00:00.000 : en:Chapter 1
00:12:59.362 : en:Chapter 2
00:25:20.310 : en:Chapter 3
00:36:34.609 : en:Chapter 4
00:51:04.311 : en:Chapter 5
01:05:06.569 : en:Chapter 6
01:20:00.963 : en:Chapter 7
01:28:46.613 : en:Chapter 8

piratbit.org



Скачать Команда разрушителей через торрент http://c.radikal.ru/c32/2105/a3/a702c94f8f7d.jpg Скачать фильм Команда разрушителей через торрент бесплантно в хорошем качестве Описание: Граф Контини украл столько золота, что спровоцировал экономический кризис на мировых рынках. Опытный агент Мэтт Хелм пытается ... 10 10 1
Info! Золотая раздача, скачанное не засчитывается.
Торрент: Зарегистрирован [2021-05-04 06:31] · скачан: 7 раз
Статус: √ проверено
Размер: 6.51 GB
Как cкачать? Как скачать Команда разрушителей через торрент | UTorrent

28-11-2019 20:33  

Отключить всю рекламу на сайте

    Дорогой пользователь! Огромная просьба, поблагодарите релизера, оцените раздачу и оставьте свои комментарий, если Вы скачали Команда разрушителей через торрент бесплатно! Внесите свою лепту в развитие PiratBit!
    Комментировать посты могут только пользователи прошедшие не сложную регистрацию
    Показать сообщения:    

    Команда разрушителей через торрент
    Скачать бесплатно Команда разрушителей
    Команда разрушителей скачать торрент
    Команда разрушителей смотреть онлайн
    Cкачать фильм Команда разрушителей бесплатно
    Команда разрушителей скачать торрент в хорошем качестве
    Команда разрушителей смотреть онлайн бесплатно в хорошем качестве


    Вы не можете начинать темы
    Вы не можете отвечать на сообщения
    Вы не можете редактировать свои сообщения
    Вы не можете удалять свои сообщения
    Вы не можете голосовать в опросах
    Вы не можете прикреплять файлы к сообщениям
    Вы можете скачивать файлы