1 сезон

1 сезон

iTunes

1

iTunes

Кинопоиск HD

iTunes

13

1 сезон

RePack

30

Deluxe

ВАЖНО

ИГРА 18+

pack

RePack

MK11
pack

Легкие деньги

RePack

jed

RePack

fifa19

RePack

RDR2

RePack

NEED FOR SPEED™ PAYBACK

4 сезон

9 сезон

Бесстыжие 9 сезон

Все сериалы

все сериалы на PB.wtf

RePack

FAR CRY 5
  
Magnet ссылка

Без жалости / Без жалю / Without Remorse (Стефано Соллима) [2021, Боевик, приключения, триллер, WEBRip 720p] [Ukr MVO] (DniproFilm) piratbit.org

Без жалости через торрент piratbit.org

Раздают: 3 [ 0 KB/s ]
Размер: 3.25 GB | Добавлен: 9 д. назад | Торрент скачан:46 раз
Скачать  

04-05-2021 14:42 Без жалости Скачать торрент  

Без жалости / Без жалю / Without Remorse

Год выхода: 2021
Страна: США
Жанр: Боевик, приключения, триллер
Продолжительность: 01:49:14
Перевод: Украинский (профессиональный, многоголосный)
Субтитры: украинские (forced)

Режиссер: Стефано Соллима

В ролях: Майкл Б. Джордан, Джоди Тёрнер-Смит, Джейми Белл, Гай Пирс, Лорен Лондон, Джейкоб Скипио, Тодд Ласанс, Джек Кеси, Люси Расселл, Кэм Жиганде

О фильме: Джон Келли — высококлассный «морской котик», преисполненный решимости учинить кровавую вендетту людям, ответственным за убийство его беременной жены. Объединив силы с другим спецназовцем и мутным агентом ЦРУ, Келли невольно разоблачает заговор, угрожающий войной между США и Россией. Разрываясь между честью и преданностью стране, он должен безжалостно сражаться с врагами, если надеется предотвратить катастрофу и раскрыть могущественных лиц, стоящих во главе заговора.

rating
скриншот  


Качество: WEBRip 720p
Формат: MKV
Видео: AVC, 1280x532, 23.976 fps, 3 151 kb/s
Аудио: 48 kHz, AC3, 6 ch, ~384.00 kbps avg - Ukr
Аудио: 48 kHz, E-AC3, 6 ch, ~640.00 kbps avg - Eng
скриншот   скриншот   скриншот  
General
Unique ID : 225610899679694176311224597095186616920 (0xA9BB1428C8E91AA05D38406832AAD258)
Complete name : G:\Фільми\Without Remorse (2021) WEBRip 720p [Hurtom].mkv
Format : Matroska
Format version : Version 4
File size : 3.25 GiB
Duration : 1 h 49 min
Overall bit rate : 4 260 kb/s
Writing application : Lavf58.29.100
Writing library : Lavf58.29.100
ErrorDetectionType : Per level 1

Video
ID : 1
Format : AVC
Format/Info : Advanced Video Codec
Format profile : Main@L3.1
Format settings : CABAC / 1 Ref Frames
Format settings, CABAC : Yes
Format settings, Reference frames : 1 frame
Format settings, GOP : M=1, N=30
Codec ID : V_MPEG4/ISO/AVC
Duration : 1 h 49 min
Bit rate : 3 151 kb/s
Width : 1 280 pixels
Height : 532 pixels
Display aspect ratio : 2.40:1
Frame rate mode : Constant
Frame rate : 23.976 (24000/1001) FPS
Color space : YUV
Chroma subsampling : 4:2:0
Bit depth : 8 bits
Scan type : Progressive
Bits/(Pixel*Frame) : 0.193
Stream size : 2.40 GiB (74%)
Default : Yes
Forced : No

Audio #1
ID : 2
Format : AC-3
Format/Info : Audio Coding 3
Commercial name : Dolby Digital
Codec ID : A_AC3
Duration : 1 h 49 min
Bit rate mode : Constant
Bit rate : 384 kb/s
Channel(s) : 6 channels
Channel layout : L R C LFE Ls Rs
Sampling rate : 48.0 kHz
Frame rate : 31.250 FPS (1536 SPF)
Compression mode : Lossy
Delay relative to video : 31 ms
Stream size : 300 MiB (9%)
Language : Ukrainian
Service kind : Complete Main
Default : Yes
Forced : No

Audio #2
ID : 3
Format : AC-3
Format/Info : Audio Coding 3
Commercial name : Dolby Digital
Codec ID : A_AC3
Duration : 1 h 49 min
Bit rate mode : Constant
Bit rate : 640 kb/s
Channel(s) : 6 channels
Channel layout : L R C LFE Ls Rs
Sampling rate : 48.0 kHz
Frame rate : 31.250 FPS (1536 SPF)
Compression mode : Lossy
Delay relative to video : 487 ms
Stream size : 500 MiB (15%)
Service kind : Complete Main
Default : Yes
Forced : No
piratbit.org



Скачать Без жалости через торрент https://i4.imageban.ru/out/2021/05/04/26bbcbe0280105392255020ce657d948.jpg Скачать фильм Без жалости через торрент бесплантно в хорошем качестве О фильме: Джон Келли — высококлассный «морской котик», преисполненный решимости учинить кровавую вендетту людям, ответственным за убийство ... 5.5 10 2
Торрент: Зарегистрирован [2021-05-04 14:42] · скачан: 46 раз
Статус: √ проверено
Размер: 3.25 GB
Как cкачать? Как скачать Без жалости через торрент | UTorrent

28-11-2019 20:33  

Отключить всю рекламу на сайте

    Дорогой пользователь! Огромная просьба, поблагодарите релизера, оцените раздачу и оставьте свои комментарий, если Вы скачали Без жалости через торрент бесплатно! Внесите свою лепту в развитие PiratBit!
    Комментировать посты могут только пользователи прошедшие не сложную регистрацию
    Показать сообщения:    

    Без жалости через торрент
    Скачать бесплатно Без жалости
    Без жалости скачать торрент
    Без жалости смотреть онлайн
    Cкачать фильм Без жалости бесплатно
    Без жалости скачать торрент в хорошем качестве
    Без жалости смотреть онлайн бесплатно в хорошем качестве


    Вы не можете начинать темы
    Вы не можете отвечать на сообщения
    Вы не можете редактировать свои сообщения
    Вы не можете удалять свои сообщения
    Вы не можете голосовать в опросах
    Вы не можете прикреплять файлы к сообщениям
    Вы можете скачивать файлы