Достать ножи: Стеклянная луковица

MVO

Добыча

Дубляж

Уэнсдэй

1 сезон

Тор

Дубляж

13 клиническая

1 сезон

Жестокая ночь

MVO

Одни из нас

1 сезон

Deluxe

pack

Рекомендуем

30

Пиратка

ВАЖНО

ВАЖНО

Ghostwire

Пиратка

jed

RePack

nioh2

RePack

RDR2

RePack

NEED FOR SPEED™ PAYBACK

RePack

скачать торрент

Кинопоиск HD

Острые козырьки 6 сезон

6 сезон

FAR CRY 6

RePack

скачать торрент

Лицензия

скачать торрент

MVO

1

1 сезон

скачать торрент

1 сезон

скачать торрент

Лицензия

  

Королевская битва / Battle Royale / Batoru rowaiaru (Киндзи Фукасаку, Кента Фукасаку) [2000, Боевик, триллер, фантастика, драма, UHD BDRemux 2160p, (Dolby Vision Profile 8)] [Режиссерская версия] Дубляж+AVO [Гаврилов]

Королевская битва через торрент piratbit.org

Размер: 75.24 GB | Добавлен: 1 год 8 мес. назад | Торрент скачан:41 раз
Смотреть онлайн | Скачать | Поддержите нас   

06-05-2021 16:34 Королевская битва Скачать торрент  

Королевская битва
Battle Royale | Batoru rowaiaru

Год выпуска: 2000
Страна: Япония
Студия: Fukasaku-gumi, Toel Company, Ltd. AM Associates, Battle Royale Production Committee
Жанр: Боевик, триллер, фантастика, драма
Продолжительность: 02:02:01
Перевод(ы):
#1: Дублированный (со вставками Гаврилова на расширенные места)
#2: Авторский | Гаврилов
Субтитры: Русские (Full), английские

Режиссер: Киндзи Фукасаку, Кента Фукасаку

rating

В ролях: Такэси Китано, Ко Сибасаки, Таро Ямамото, Аки Маэда, Тацуя Фудзивара, Чиаки Курияма, Масанобу Андо, Сонни Чиба, Аи Ивамура, Аи Маэда, Аяна Сакаи, Масуми Туёка, Митсуру Мурата, Нацуки Като, Рики Такеючи, Такаси Цукамото

Описание: Такого ещё не было, но будет! Очень скоро! Родители лишатся работы, а дети выйдя из под контроля, учинят террор и массовый бойкот взрослым. Ответная мера: «Королевская битва» - санкционированная правительством жестокая игра, в которой неуправляемых школьников заставят участвовать под дулами армейских автоматов. На необитаемом острове 42 подростка будут 3 дня безжалостно уничтожать друг друга, чтобы победить. Только одному игроку разрешено вернуться на большую землю живым. Невозмутимый распорядитель зловещей игры - школьный учитель Китано. Своё имя дал герою исполнитель этой роли всемирно известный культовый актёр и режиссёр Такеши Китано. Кровь льётся рекой, но учитель Китано гарантирует не только соблюдение условий игры, но и её условность. Юные герои гибнут, точь-в-точь как в компьютерной «стрелялке». Вот только мораль фильма не виртуальная. Из безумного электронного будущего она обращена в сегодняшний день.

Качество: UHD BDRemux 2160p | Dolby Vision Profile 8 | Режиссерская версия
Формат: MKV

Видео: 3840x2160 at 23.976 fps, MPEG-H HEVC HDR, Dolby Vision Profile 8 Video, ~ 83600 kbps avg
Аудио #01: 48 kHz, AC3, 5.1, 448 Kbps | Дублированный | RUS |
Аудио #02: 48 kHz, AC3, 5.1, 448 Kbps | Авторский | RUS |
Аудио #03: 48 kHz, DTS-HD MA, 5.1, 3790 Kbps | Оригинал | JAP |
скриншот  скриншот  скриншот  скриншот  скриншот  

General
Unique ID : 191460308322427045141169437775000976798 (0x9009EA0231A8BEE4074CC131E5AB3D9E)
Complete name : F:VideoBattle.Royale.2000.BDREMUX.2160p.seleZen.mkv
Format : Matroska
Format version : Version 4
File size : 75.2 GiB
Duration : 2 h 2 min
Overall bit rate mode : Variable
Overall bit rate : 88.3 Mb/s
Movie name : Battle Royale 2000 4K from seleZen
Encoded date : UTC 2021-05-06 02:16:18
Writing application : mkvmerge v55.0.0 ('Waiting For Space') 64-bit
Writing library : libebml v1.4.2 + libmatroska v1.6.4

Video
ID : 1
ID in the original source m : 4117 (0x1015)
Format : HEVC
Format/Info : High Efficiency Video Coding
Format profile : Main 10@L5.1@High
HDR format : Dolby Vision, Version 1.0, dvhe.08.06, BL+RPU, Blu-ray compatible / SMPTE ST 2086, HDR10 compatible
Codec ID : V_MPEGH/ISO/HEVC
Duration : 2 h 2 min
Bit rate : 83.6 Mb/s
Width : 3 840 pixels
Height : 2 160 pixels
Display aspect ratio : 16:9
Frame rate mode : Constant
Frame rate : 23.976 (24000/1001) FPS
Color space : YUV
Chroma subsampling : 4:2:0 (Type 2)
Bit depth : 10 bits
Bits/(Pixel*Frame) : 0.420
Stream size : 71.2 GiB (95%)
Language : English
Default : No
Forced : No
Color range : Limited
Color primaries : BT.2020
Transfer characteristics : PQ
Matrix coefficients : BT.2020 non-constant
Mastering display color pri : BT.2020
Mastering display luminance : min: 0.0001 cd/m2, max: 1000 cd/m2
Original source medium : Blu-ray

Audio #1
ID : 2
Format : AC-3
Format/Info : Audio Coding 3
Commercial name : Dolby Digital
Codec ID : A_AC3
Duration : 2 h 1 min
Bit rate mode : Constant
Bit rate : 448 kb/s
Channel(s) : 6 channels
Channel layout : L R C LFE Ls Rs
Sampling rate : 48.0 kHz
Frame rate : 31.250 FPS (1536 SPF)
Compression mode : Lossy
Stream size : 390 MiB (1%)
Title : Дубляж
Language : Russian
Service kind : Complete Main
Default : Yes
Forced : Yes

Audio #2
ID : 3
Format : AC-3
Format/Info : Audio Coding 3
Commercial name : Dolby Digital
Codec ID : A_AC3
Duration : 2 h 1 min
Bit rate mode : Constant
Bit rate : 448 kb/s
Channel(s) : 6 channels
Channel layout : L R C LFE Ls Rs
Sampling rate : 48.0 kHz
Frame rate : 31.250 FPS (1536 SPF)
Compression mode : Lossy
Stream size : 390 MiB (1%)
Title : AVO [Gavrilov]
Language : Russian
Service kind : Complete Main
Default : No
Forced : No

Audio #3
ID : 4
Format : DTS XLL
Format/Info : Digital Theater Systems
Commercial name : DTS-HD Master Audio
Codec ID : A_DTS
Duration : 2 h 2 min
Bit rate mode : Variable
Bit rate : 3 790 kb/s
Channel(s) : 6 channels
Channel layout : C L R Ls Rs LFE
Sampling rate : 48.0 kHz
Frame rate : 93.750 FPS (512 SPF)
Bit depth : 24 bits
Compression mode : Lossless
Stream size : 3.23 GiB (4%)
Title : Original
Language : Japanese
Default : No
Forced : No

Text #1
ID : 5
Format : UTF-8
Codec ID : S_TEXT/UTF8
Codec ID/Info : UTF-8 Plain Text
Duration : 2 h 0 min
Bit rate : 64 b/s
Count of elements : 1057
Stream size : 57.0 KiB (0%)
Title : Full
Language : Russian
Default : No
Forced : No

Text #2
ID : 6
Format : UTF-8
Codec ID : S_TEXT/UTF8
Codec ID/Info : UTF-8 Plain Text
Duration : 1 h 57 min
Bit rate : 36 b/s
Count of elements : 1031
Stream size : 31.3 KiB (0%)
Title : Full
Language : English
Default : No
Forced : No

Menu
00:00:00.000 : en:Глава 01
00:08:51.364 : en:Глава 02
00:20:53.335 : en:Глава 03
00:29:34.564 : en:Глава 04
00:41:07.799 : en:Глава 05
00:49:43.939 : en:Глава 06
00:57:39.498 : en:Глава 07
01:08:41.993 : en:Глава 08
01:19:30.391 : en:Глава 09
01:34:36.796 : en:Глава 10
01:43:22.321 : en:Глава 11
01:52:30.661 : en:Глава 12




Скачать Королевская битва через торрент https://c.radikal.ru/c27/2105/b3/a385698bc55c.jpg Скачать, смотреть онлайн Королевская битва бесплантно в хорошем качестве Описание: Такого ещё не было, но будет! Очень скоро! Родители лишатся работы, а дети выйдя из под контроля, учинят террор и массовый бойкот ... 8.3 10 3
Торрент: Зарегистрирован [2021-05-06 16:34] · скачан: 41 раз
Статус: √ проверено
Размер: 75.24 GB
Как cкачать? Как скачать Королевская битва через торрент | UTorrent

% Раздел Тема Автор DL S | L
! Фильмы (HD 720p, 1080p) (48-60 fps) [ 3.79 GB ] Королевская битва / Batoru rowaiaru | AVO | 720p / 60 FPS alien2015 Скачать
6 | 0
Азиатские фильмы [ 17.71 GB ] Королевская битва | DUB | 1080p msltel Скачать
1 | 0
Азиатские фильмы [ 6.18 GB ] Королевская битва | DUB | 720p msltel Скачать
1 | 0

28-11-2019 20:33  


Отключить вcю реклaмy на сайте, в т.ч. и в плеере онлайн просмотра!

    Дорогой пользователь! Огромная просьба, поблагодарите релизера, оцените раздачу и оставьте свои комментарий, если Вы скачали Королевская битва через торрент бесплатно!!
    Комментировать посты могут только пользователи прошедшие не сложную регистрацию
    Показать сообщения:    


    Королевская битва через торрент
    Скачать бесплатно Королевская битва
    Королевская битва скачать торрент
    Королевская битва смотреть онлайн
    Cкачать фильм Королевская битва бесплатно
    Королевская битва скачать торрент в хорошем качестве
    Королевская битва смотреть онлайн бесплатно в хорошем качестве
    Вы не можете начинать темы
    Вы не можете отвечать на сообщения
    Вы не можете редактировать свои сообщения
    Вы не можете удалять свои сообщения
    Вы не можете голосовать в опросах
    Вы не можете прикреплять файлы к сообщениям
    Вы можете скачивать файлы
    Королевская битва / Battle Royale / Batoru rowaiaru [2000, Боевик, триллер, фантастика, драма, UHD BDRemux 2160p, ] [Режиссерская версия] Дубляж+AVO [Гаврилов] смотреть онлайн, скачать торрент picoco.icu