1 сезон

3 сезон

iTunes

1

iTunes

DUB Netflix

iTunes

13

1 сезон

RePack

30

Deluxe

pack

Легкие деньги

ВАЖНО

ИГРА 18+

pack

RePack

MK11

RePack

jed

RePack

fifa19

RePack

RDR2

RePack

NEED FOR SPEED™ PAYBACK

4 сезон

9 сезон

Бесстыжие 9 сезон

Все сериалы

все сериалы на PB.wtf

RePack

FAR CRY 5

Anonymous, добрый вечер, мы не успеваем до 1 числа собрать деньги на оплату серверов, помогите нам пожалуйста в это трудное время. В качестве благодарности мы отключим Вам всю рекламу на сайте (укажите свой ник в строку Ваше имя)!

×
  
Magnet ссылка

8 способов любить / Сезон: 1 / Серии: 1-4 из 8 (Гамлет Дульян) [2021, Драма, мелодрама, комедия, триллер, WEBRip, (Версия 18+)] piratbit.org

8 способов любить через торрент piratbit.org

Размер: 733 MB | Добавлен: 1 мес. 10 д. назад | Торрент скачан:6 раз
Скачать  

06-05-2021 18:21 8 способов любить Скачать торрент  

8 способов любить
Год выпуска: 2021
Страна: Россия
Выпущено: Кинокомпания NEMESIS FILMS
Жанр: Драма, мелодрама, комедия, триллер
Продолжительность: ~ 00:15:00
Перевод: Не требуется
Субтитры: отсутствуют
Версия 18+.

Режиссер: Гамлет Дульян



В ролях: Кирилл Кяро, Нино Нинидзе, Александр Яценко, Нелли Уварова, София Петрова, Алексей Маклаков, Ольга Хохлова, Марьяна Спивак, Константин Федоров, Павел Майков, Катерина Ковальчук, Давид Колчин, Таша Цветкова, Михаил Башкатов, Елизавета Моряк, Софья Зайка, Мария Ульянова, Антон Ануров, Роман Каграманов, Микаэл Джанибекян, Вартан Торосян

Описание: Любовь имеет так много оттенков: любовь к себе и всему человечеству, отношения родителей и детей, страсть и мания, бескорыстная любовь и одержимая. О ее характере размышляли еще древние греки и выделили восемь типов любви. Каждая серия — это история о разных гранях одного всеобъемлющего чувства.

Качество: WEBRip
Формат: AVI

Видео: XviD, ~ 1600 Кбит/с, 720x352, 25 Кадр/с
Аудио: 48.0 kHz, AC3 Dolby Digital, 2/0 (L,R) ch, ~ 192 kbps
скриншот  скриншот  скриншот  скриншот  скриншот  

General
Complete name : D:\Кодинг\43\01. 8 способов любить.2021.WEB-DLRip.Files-x.avi
Format : AVI
Format/Info : Audio Video Interleave
File size : 197 MiB
Duration : 15 min 15 s
Overall bit rate : 1 802 kb/s
Writing application : VirtualDubMod 1.5.10.3 | www.virtualdub-fr.org || (build 2550/release)
Writing library : VirtualDubMod build 2550/release

Video
ID : 0
Format : MPEG-4 Visual
Format profile : Advanced Simple@L5
Format settings : BVOP1 / Custom Matrix
Format settings, BVOP : 1
Format settings, QPel : No
Format settings, GMC : No warppoints
Format settings, Matrix : Custom
Codec ID : XVID
Codec ID/Hint : XviD
Duration : 15 min 15 s
Bit rate : 1 600 kb/s
Width : 720 pixels
Height : 352 pixels
Display aspect ratio : 2.045
Frame rate : 25.000 FPS
Color space : YUV
Chroma subsampling : 4:2:0
Bit depth : 8 bits
Scan type : Progressive
Compression mode : Lossy
Bits/(Pixel*Frame) : 0.252
Stream size : 175 MiB (89%)
Writing library : XviD 73

Audio
ID : 1
Format : AC-3
Format/Info : Audio Coding 3
Format settings, Endianness : Big
Codec ID : 2000
Duration : 15 min 15 s
Bit rate mode : Constant
Bit rate : 192 kb/s
Channel(s) : 2 channels
Channel positions : Front: L R
Sampling rate : 48.0 kHz
Frame rate : 31.250 FPS (1536 SPF)
Bit depth : 16 bits
Compression mode : Lossy
Stream size : 21.0 MiB (11%)
Alignment : Split accross interleaves
Interleave, duration : 40 ms (1.00 video frame)
Interleave, preload duration : 500 ms
Service kind : Complete Main

Внимание! Раздача ведётся путём добавления новых серий; при каждом добавлении создаётся новый торрент.
Чтобы начать докачку новой серии, пользователям необходимо сделать следующее:
1. Остановить скачивание;
2. Удалить старый торрент у себя из клиента (старые серии удалять не надо);
3. Скачать новый торрент и запустить его у себя в клиенте вместо старого, при этом указать клиенту путь в старую папку куда и должно происходить скачивание новых серий. Ваш клиент при этом должен произвести хеширование (проверку) старой папки и будет докачивать только те серии, которых у вас ещё нет. Старые серии при этом не удаляются, а продолжают раздаваться! Eсли вы уже удалили старые серии, то предотвратить повторную закачку старых серий можно, отжав галочку в соответствующих местах при запуске нового торрента.

piratbit.org



Скачать 8 способов любить через торрент https://c.radikal.ru/c12/2105/84/4b2df378e450.jpg Скачать фильм 8 способов любить через торрент бесплантно в хорошем качестве Описание: Любовь имеет так много оттенков: любовь к себе и всему человечеству, отношения родителей и детей, страсть и мания, бескорыстная ... 10 10 4
Торрент: Зарегистрирован [2021-05-13 17:42] · скачан: 6 раз
Статус: √ проверено
Размер: 733 MB
Как cкачать? Как скачать 8 способов любить через торрент | UTorrent

28-11-2019 20:33  

Отключить всю рекламу на сайте

    Дорогой пользователь! Огромная просьба, поблагодарите релизера, оцените раздачу и оставьте свои комментарий, если Вы скачали 8 способов любить через торрент бесплатно! Внесите свою лепту в развитие PiratBit!
    Комментировать посты могут только пользователи прошедшие не сложную регистрацию
    Показать сообщения:    

    8 способов любить через торрент
    Скачать бесплатно 8 способов любить
    8 способов любить скачать торрент
    8 способов любить смотреть онлайн
    Cкачать фильм 8 способов любить бесплатно
    8 способов любить скачать торрент в хорошем качестве
    8 способов любить смотреть онлайн бесплатно в хорошем качестве


    Вы не можете начинать темы
    Вы не можете отвечать на сообщения
    Вы не можете редактировать свои сообщения
    Вы не можете удалять свои сообщения
    Вы не можете голосовать в опросах
    Вы не можете прикреплять файлы к сообщениям
    Вы можете скачивать файлы