1 сезон

3 сезон

iTunes

1

iTunes

MVO

iTunes

13

1 сезон

RePack

30

Deluxe

pack

Лицензия

ВАЖНО

ИГРА 18+

pack

RePack

MK11

RePack

jed

RePack

fifa19

RePack

RDR2

RePack

NEED FOR SPEED™ PAYBACK

4 сезон

9 сезон

Бесстыжие 9 сезон

Все сериалы

все сериалы на PB.wtf

RePack

FAR CRY 5

Anonymous, доброе утро, мы катастрофически не успеваем собрать деньги на оплату серверов, помогите нам пожалуйста 5,10,15р., для нас важна любая помощь . В качестве благодарности мы отключим Вам всю рекламу на сайте (укажите свой ник в строку Ваше имя)!

×
  
Magnet ссылка

Регби / Сезон: 1 / Серии: 1-12 из 16 (Аня Мирохина) [2021, Драма, спорт, WEB-DL 720p] piratbit.org

Регби через торрент piratbit.org

Качают: 1 [ 0 KB/s ]
Размер: 8.9 GB | Добавлен: 2 д. 13 ч. назад | Торрент скачан:2 раза
Скачать  

19-05-2021 17:14 Регби Скачать торрент  

Регби
Год выпуска: 2021
Страна: Россия
Выпущено: LEGIO FELIX по заказу телеканала СТС
Жанр: Драма, спорт
Продолжительность: ~ 00:45:00 серия
Субтитры: отсутствуют

Режиссер: Аня Мирохина



В ролях: Олег Гаас, Маргарита Аброськина, Александра Власова, Сергей Селин, Дмитрий Корепин, Сергей Рудзевич, Александра Розанова, Сергей Ланбамин, Максим Иванов (II), Никита Абдулов, Анастасия Анофриева, Сергей Волков (III), Игорь Сильченко, Ольга Владимирова, Александр Шам, Анна Немченко, Денис Васильев, Наталья Высочанская, Сергей Галахов, Вячеслав Пронин, Виктория Белякова, Василий Копейкин, Павел Гончаров, Ксения Новышева, Дмитрий Ячевский, Алексей Суренский, Виктория Мартынова, Александр Михайлов (X), Екатерина Сахно, Василий Бриченко, Артём Крестников, Егор Заховаев, Александр Зачиняев, Константин Шпаков, Мария Бирюкова, Дмитрий Чукин, Антон Афанасьев, Лиана Гриба, Сергей Иванюк, Никита Кологривый

Описание: Конфликт с тренером заставляет чемпионку России по спортивной гимнастике Настю бросить любимый спорт. Но девушка не представляет свою жизнь без соревнований и решает попробовать себя в женском регби. В мужскую команду того же клуба, где занимается Настя, попадает бывший боксер Макс, которому пришлось уйти из смешанных единоборств. Оба погружаются в новый для себя мир, стремясь доказать, что никакие трудности не способны помешать им вновь оказаться на первом месте.

Качество: WEB-DL 720p
Формат: MKV

Видео: MPEG-4 AVC, 2300 Кбит/с, 1280x720, 0.087 bit/pixel, 25 Кадр/с
Аудио: 48.0 kHz, AC3 Dolby Digital, 2/0 (L,R) ch, ~ 192 kbps
скриншот  скриншот  скриншот  скриншот  

бщее
Уникальный идентификатор : 289657218761439911167224228432875948692 (0xD9E9F37CBC3634B74BFFA0A906B90A94)
Полное имя : D:Regbi.2021.WEB-DL.720p1.Regbi.2021.WEB-DL.720p.mkv
Формат : Matroska
Версия формата : Version 4
Размер файла : 836 Мбайт
Продолжительность : 47 м. 24 с.
Общий поток : 2 464 Кбит/сек
Название фильма : 01.Regbi.2021.WEB-DL.720p
Дата кодирования : UTC 2021-05-23 17:53:55
Программа кодирования : mkvmerge v57.0.0 ('Till The End') 64-bit
Библиотека кодирования : libebml v1.4.2 + libmatroska v1.6.4
Attachments : poster.jpg

Видео
Идентификатор : 1
Формат : AVC
Формат/Информация : Advanced Video Codec
Профиль формата : High@L3.1
Настройки формата : CABAC / 3 Ref Frames
Параметр CABAC формата : Да
Параметр RefFrames формата : 3 кадра
Идентификатор кодека : V_MPEG4/ISO/AVC
Продолжительность : 47 м. 24 с.
Битрейт : 2 270 Кбит/сек
Ширина : 1 280 пикселей
Высота : 720 пикселей
Соотношение сторон : 16:9
Режим частоты кадров : Постоянный
Частота кадров : 25,000 кадров/сек
Цветовое пространство : YUV
Субдискретизация насыщенности : 4:2:0
Битовая глубина : 8 бит
Тип развёртки : Прогрессивная
Бит/(Пиксели*Кадры) : 0.099
Размер потока : 770 Мбайт (92%)
Default : Да
Forced : Нет

Аудио
Идентификатор : 2
Формат : AC-3
Формат/Информация : Audio Coding 3
Коммерческое название : Dolby Digital
Идентификатор кодека : A_AC3
Продолжительность : 47 м. 24 с.
Вид битрейта : Постоянный
Битрейт : 192 Кбит/сек
Каналы : 2 канала
Channel layout : L R
Частота : 48,0 КГц
Частота кадров : 31,250 кадров/сек (1536 SPF)
Метод сжатия : С потерями
Размер потока : 65,1 Мбайт (8%)
Service kind : Complete Main
Default : Да
Forced : Нет

Когда раздача ведётся путём добавления новых серий, при каждом добавлении создётся новый торрент. Чтобы начать докачку новой серии, пользователям необходимо сделать следующее:
(1) остановить скачивание,
(2) удалить старый торрент у себя из клиента (старые серии удалять не надо),
(3) скачать новый торрент и запустить его у себя в клиенте вместо старого, при этом указать клиенту путь в старую папку, куда и должно происходить скачивание новых серий.
Ваш клиент при этом должен произвести хеширование (проверку) старой папки (если не производит сам - помогите ему сделать это), и будет докачивать только те серии, которых у вас ещё нет. Старые серии при этом не удаляются, а продолжают раздаваться!
Eсли вы уже удалили старые серии, то предотвратить повторную закачку старых серий можно, отжав галочку в соответсвующих местах при запуске нового торрента. По возможности, желательно не удалять старые серии как можно дольше, чтобы релизёр не столько продолжал раздавать старые серии, а смог сконцентрироваться на новых.

piratbit.org



Скачать Регби через торрент https://i114.fastpic.ru/big/2021/0519/ff/cf5bbd27ec59ea42d9e92ff46ce9deff.jpg Скачать фильм Регби через торрент бесплантно в хорошем качестве Описание: Конфликт с тренером заставляет чемпионку России по спортивной гимнастике Настю бросить любимый спорт. Но девушка не представляет ... 10 10 4
Торрент: Зарегистрирован [2021-07-21 15:31] · скачан: 2 раз
Статус: √ проверено
Размер: 8.9 GB
Как cкачать? Как скачать Регби через торрент | UTorrent

% Раздел Тема Автор DL S | L
Наши сериалы [ 7.08 GB ] Регби / Сезон: 1 / Серии: 1-12 из 16 [2021 WEB-DLRip-AVC] bober100 Скачать
1 | 0
Наши сериалы [ 7.03 GB ] Регби / Сезон: 1 / Серии: 1-12 из 16 [2021 WEB-DLRip] bober100 Скачать
2 | 4
Наши сериалы [ 16.55 GB ] Регби / Сезон: 1 / Серии: 1-12 из 16 [2021 WEB-DL 1080p] bober100 Скачать
2 | 1

28-11-2019 20:33  

Отключить всю рекламу на сайте

    Дорогой пользователь! Огромная просьба, поблагодарите релизера, оцените раздачу и оставьте свои комментарий, если Вы скачали Регби через торрент бесплатно! Внесите свою лепту в развитие PiratBit!
    Комментировать посты могут только пользователи прошедшие не сложную регистрацию
    Показать сообщения:    

    Регби через торрент
    Скачать бесплатно Регби
    Регби скачать торрент
    Регби смотреть онлайн
    Cкачать фильм Регби бесплатно
    Регби скачать торрент в хорошем качестве
    Регби смотреть онлайн бесплатно в хорошем качестве


    Вы не можете начинать темы
    Вы не можете отвечать на сообщения
    Вы не можете редактировать свои сообщения
    Вы не можете удалять свои сообщения
    Вы не можете голосовать в опросах
    Вы не можете прикреплять файлы к сообщениям
    Вы можете скачивать файлы