1 сезон

3 сезон

iTunes

1

iTunes

DUB Netflix

iTunes

13

1 сезон

RePack

30

Deluxe

pack

Легкие деньги

ВАЖНО

ИГРА 18+

pack

RePack

MK11

RePack

jed

RePack

fifa19

RePack

RDR2

RePack

NEED FOR SPEED™ PAYBACK

4 сезон

9 сезон

Бесстыжие 9 сезон

Все сериалы

все сериалы на PB.wtf

RePack

FAR CRY 5

Anonymous, доброй ночи, мы не успеваем до 1 числа собрать деньги на оплату серверов, помогите нам пожалуйста в это трудное время. В качестве благодарности мы отключим Вам всю рекламу на сайте (укажите свой ник в строку Ваше имя)!

×
  
Magnet ссылка

Что? Где? Когда? Летняя серия игр / Серии: 1-3 из 5 [2021, Интеллектуальное шоу, HDTV 1080i] piratbit.org

Что? Где? Когда? Летняя серия игр через торрент piratbit.org

Качают: 1 [ 0 KB/s ]
Размер: 9.64 GB | Добавлен: 12 д. назад | Торрент скачан:2 раза
Скачать  

24-05-2021 02:19 Что? Где? Когда? Летняя серия игр Скачать торрент  

Что? Где? Когда? Летняя серия игр Год выпуска: 2021
Страна: Россия
Жанр: Интеллектуальное шоу
Продолжительность: ~ 01:01:15
Перевод: Не требуется
Субтитры: отсутствуют

Ведущий: Борис Крюк

Описание: Интеллектуальная викторина, наиболее распространённая в русскоязычной среде. Была создана в 1975 г. телеведущим Владимиром Ворошиловым. Игра очень быстро стала настолько популярной, что кроме оригинальной телевизионной версии появилась спортивная версия игры. Сущность игры заключается в противостоянии команды Знатоков (игровой команды из шести человек) команде Телезрителей. Знатоки должны за одну минуту при помощи мозгового штурма найти ответ на вопрос, присланный телезрителем. Как правило, игрокам задаются вопросы, ответить на которые можно с помощью общих знаний и логики. За каждый правильный ответ команда Знатоков получает одно очко, в случае неверного ответа очко начисляется команде Телезрителей. Игра ведётся до шести очков.

Качество: HDTV 1080i
Формат: MKV

Видео: MPEG-4 AVC, ~ 6268 Кбит/с, 1920x1080
Аудио#1: Русский (AC3, 6 ch, 384 Кбит/с)
Аудио#2: Русский (MP2, 2 ch, 192 Кбит/с)
Первая игра, команда Дмитрия Локтикова: Денис Потехин, Павел Журавлёв, Диана Агейченкова, Николай Сенькин, Николай Русскин, Дмитрий Локтиков.

скриншот  скриншот  скриншот  скриншот  

Общее
Уникальный идентификатор : 23875563072631874179215658663641250278 (0x11F64424C52C14CDE2DD1033673E79E6)
Полное имя : D:Chto.Gde.Kogda.Letnyaya.seriya.igr.2021.HDTV.1080i1.Chto.Gde.Kogda.Letnyaya.seriya.igr.23.05.2021.HDTV.1080i.mkv
Формат : Matroska
Версия формата : Version 4
Размер файла : 3,40 Гбайт
Продолжительность : 1 ч. 11 м.
Общий поток : 6 848 Кбит/сек
Название фильма : 01.Chto.Gde.Kogda.Letnyaya.seriya.igr.23.05.2021.HDTV.1080i
Дата кодирования : UTC 2021-05-23 20:44:50
Программа кодирования : mkvmerge v57.0.0 ('Till The End') 64-bit
Библиотека кодирования : libebml v1.4.2 + libmatroska v1.6.4
Attachments : poster.jpg

Видео
Идентификатор : 1
Формат : AVC
Формат/Информация : Advanced Video Codec
Профиль формата : High@L4
Настройки формата : CABAC / 4 Ref Frames
Параметр CABAC формата : Да
Параметр RefFrames формата : 4 кадра
Идентификатор кодека : V_MPEG4/ISO/AVC
Продолжительность : 1 ч. 11 м.
Битрейт : 6 268 Кбит/сек
Ширина : 1 920 пикселей
Высота : 1 080 пикселей
Соотношение сторон : 16:9
Режим частоты кадров : Переменный
Частота кадров : 50,000 кадров/сек
Частота кадров в оригинале : 25,000 кадров/сек
Стандарт вещания : Component
Цветовое пространство : YUV
Субдискретизация насыщенности : 4:2:0
Битовая глубина : 8 бит
Тип развёртки : Чересстрочная
Метод сохранения типа развёртки : Раздельные поля
Порядок развёртки : Верхнее поле первое
Бит/(Пиксели*Кадры) : 0.060
Размер потока : 3,11 Гбайт (92%)
Default : Да
Forced : Нет
Цветовой диапазон : Limited
Основные цвета : BT.709
Характеристики трансфера : BT.709
Коэффициенты матрицы : BT.709

Аудио #1
Идентификатор : 2
Формат : AC-3
Формат/Информация : Audio Coding 3
Коммерческое название : Dolby Digital
Идентификатор кодека : A_AC3
Продолжительность : 1 ч. 11 м.
Вид битрейта : Постоянный
Битрейт : 384 Кбит/сек
Каналы : 6 каналов
Channel layout : L R C LFE Ls Rs
Частота : 48,0 КГц
Частота кадров : 31,250 кадров/сек (1536 SPF)
Метод сжатия : С потерями
Размер потока : 195 Мбайт (6%)
Язык : Russian
Service kind : Complete Main
Default : Да
Forced : Нет

Аудио #2
Идентификатор : 3
Формат : MPEG Audio
Версия формата : Version 1
Профиль формата : Layer 2
Идентификатор кодека : A_MPEG/L2
Идентификатор кодека/Подсказка : MP2
Продолжительность : 1 ч. 11 м.
Вид битрейта : Постоянный
Битрейт : 192 Кбит/сек
Каналы : 2 канала
Частота : 48,0 КГц
Частота кадров : 41,666 кадра/сек (1152 SPF)
Метод сжатия : С потерями
Размер потока : 97,5 Мбайт (3%)
Язык : Russian
Default : Нет
Forced : Нет

Раздача ведётся путём добавления новых серий, при каждом добавлении создаётся новый торрент. Чтобы начать докачку новой серии, пользователям необходимо сделать следующее:

- Остановить скачивание.
- Удалить старый торрент у себя из клиента (старые серии удалять не надо).
- Скачать новый торрент и запустить его у себя в клиенте вместо старого, при этом указать клиенту путь в старую папку куда и должно происходить скачивание новых серий.

Ваш клиент при этом должен произвести хеширование (проверку) старой папки (если не производит сам - помогите ему сделать это), и будет докачивать только те серии которых у вас ещё нет. Старые серии при этом не удаляются, а продолжают раздаваться!
Если вы уже удалили старые серии, то предотвратить повторную закачку старых серий можно, отжав галочку в соответствующих местах при запуске нового торрента. По возможности, желательно не удалять старые серии как можно дольше, чтобы релизер не столько продолжал раздавать старые серии, а смог сконцентрироваться на новых.
piratbit.org



Скачать Что? Где? Когда? Летняя серия игр через торрент http://s017.radikal.ru/i401/1604/86/fa75ce83b4b0.jpg Скачать фильм Что? Где? Когда? Летняя серия игр через торрент бесплантно в хорошем качестве Описание: Интеллектуальная викторина, наиболее распространённая в русскоязычной среде. Была создана в 1975 г. телеведущим Владимиром ... 10 10 4
Торрент: Зарегистрирован [2021-06-07 02:51] · скачан: 2 раз
Статус: √ проверено
Размер: 9.64 GB
Как cкачать? Как скачать Что? Где? Когда? Летняя серия игр через торрент | UTorrent

28-11-2019 20:33  

Отключить всю рекламу на сайте

    Дорогой пользователь! Огромная просьба, поблагодарите релизера, оцените раздачу и оставьте свои комментарий, если Вы скачали Что? Где? Когда? Летняя серия игр через торрент бесплатно! Внесите свою лепту в развитие PiratBit!
    Комментировать посты могут только пользователи прошедшие не сложную регистрацию
    Показать сообщения:    

    Что? Где? Когда? Летняя серия игр через торрент
    Скачать бесплатно Что? Где? Когда? Летняя серия игр
    Что? Где? Когда? Летняя серия игр скачать торрент
    Что? Где? Когда? Летняя серия игр смотреть онлайн
    Cкачать фильм Что? Где? Когда? Летняя серия игр бесплатно
    Что? Где? Когда? Летняя серия игр скачать торрент в хорошем качестве
    Что? Где? Когда? Летняя серия игр смотреть онлайн бесплатно в хорошем качестве


    Вы не можете начинать темы
    Вы не можете отвечать на сообщения
    Вы не можете редактировать свои сообщения
    Вы не можете удалять свои сообщения
    Вы не можете голосовать в опросах
    Вы не можете прикреплять файлы к сообщениям
    Вы можете скачивать файлы