Достать ножи: Стеклянная луковица

MVO

Добыча

Дубляж

Уэнсдэй

1 сезон

Тор

Дубляж

13 клиническая

1 сезон

Жестокая ночь

MVO

Одни из нас

1 сезон

Deluxe

pack

Рекомендуем

30

Пиратка

ВАЖНО

ВАЖНО

Ghostwire

Пиратка

jed

RePack

nioh2

RePack

RDR2

RePack

NEED FOR SPEED™ PAYBACK

RePack

скачать торрент

Кинопоиск HD

Острые козырьки 6 сезон

6 сезон

FAR CRY 6

RePack

скачать торрент

Лицензия

скачать торрент

MVO

1

1 сезон

скачать торрент

1 сезон

скачать торрент

Лицензия

  

Вирус страха / Перед пожаром / Before the Fire (Чарли Бюхлер) [2020 г., Триллер, фантастика, боевик, HDRip, КПК] Дубляж [IVI]

Вирус страха через торрент piratbit.org

Размер: 345 MB | Добавлен: 1 год 8 мес. назад | Торрент скачан:15 раз
| Скачать | Поддержите нас   

24-05-2021 07:02 Вирус страха Скачать торрент  

Вирус страха / Перед пожаром / Before the Fire

Год выпуска: 2020
Страна: США
Жанр: Триллер, фантастика, боевик
Продолжительность: 01:30:43
Перевод: Дубляж | IVI
Субтитры: Нет

Режиссер: Чарли Бюхлер

rating

В ролях: Дженна Линг, Джексон Дэвис, Райан Виджилант, Чарльз Хаббелл, Дакота Моррисей, Тим Дрисколл, М.Дж. Карми, Лиза Гудман, Джон Тэг, Мэри Бейдлер Гарен, Эндрю Марксман, Мартин Мика

Описание: Пандемия неизвестного вируса парализует жизнь страны. Крупные города закрыты на карантин, передвижение между населенными пунктами строго регламентируется. Известная актриса принимает не легкое решение покинуть мегаполис и вернуться в родной провинциальный городок к семье, которая ее ненавидит. Шум большого города сменяется на тишину захолустья с его размеренным ритмом жизни. Но угроза для Авы приходит не со стороны вируса, а из прошлого, возвращая в ее жизнь человека, который пытается разрушить ее мир.

Качество: HDRip | КПК
Формат: MP4
Видео кодек: H.264
Аудио кодек: AAC LC
Видео: H.264, 640х272, 400 kb/s, 23.976 FPS
Аудио#1: AAC LC, 2 ch, 128 kb/s
General
Complete name : D:\Изготовление рипа\Virus.straha.2020.HDRip.KPK.by.sergey82.RG GeneralFilm.mp4
Format : MPEG-4
Format profile : Base Media
Codec ID : isom (isom/avc1/iso6)
File size : 345 MiB
Duration : 1 h 30 min
Overall bit rate mode : Variable
Overall bit rate : 532 kb/s
Encoded date : UTC 2021-05-23 11:54:37
Tagged date : UTC 2021-05-23 11:54:37

Video
ID : 1
Format : AVC
Format/Info : Advanced Video Codec
Format profile : High@L4.1
Format settings : CABAC / 4 Ref Frames
Format settings, CABAC : Yes
Format settings, Reference : 4 frames
Codec ID : avc1
Codec ID/Info : Advanced Video Coding
Duration : 1 h 30 min
Bit rate : 400 kb/s
Maximum bit rate : 3 236 kb/s
Width : 640 pixels
Height : 272 pixels
Display aspect ratio : 2.35:1
Frame rate mode : Constant
Frame rate : 23.976 (24000/1001) FPS
Color space : YUV
Chroma subsampling : 4:2:0
Bit depth : 8 bits
Scan type : Progressive
Bits/(Pixel*Frame) : 0.096
Stream size : 259 MiB (75%)
Title : 264@GPAC0.5.2-DEV-rev248-g39d5978-master
Writing library : x264 core 146 r2538 121396c
Encoding settings : cabac=1 / ref=3 / deblock=1:0:0 / analyse=0x3:0x113 / me=hex / subme=7 / psy=1 / psy_rd=1.00:0.00 / mixed_ref=1 / me_range=16 / chroma_me=1 / trellis=1 / 8x8dct=1 / cqm=0 / deadzone=21,11 / fast_pskip=1 / chroma_qp_offset=-2 / threads=6 / lookahead_threads=1 / sliced_threads=0 / nr=0 / decimate=1 / interlaced=0 / bluray_compat=0 / constrained_intra=0 / bframes=3 / b_pyramid=2 / b_adapt=1 / b_bias=0 / direct=1 / weightb=1 / open_gop=0 / weightp=2 / keyint=250 / keyint_min=23 / scenecut=40 / intra_refresh=0 / rc_lookahead=40 / rc=2pass / mbtree=1 / bitrate=400 / ratetol=1.0 / qcomp=0.60 / qpmin=0 / qpmax=69 / qpstep=4 / cplxblur=20.0 / qblur=0.5 / ip_ratio=1.40 / aq=1:1.00
Encoded date : UTC 2021-05-23 11:54:37
Tagged date : UTC 2021-05-23 11:54:43
Codec configuration box : avcC

Audio
ID : 2
Format : AAC LC
Format/Info : Advanced Audio Codec Low Complexity
Codec ID : mp4a-40-2
Duration : 1 h 30 min
Bit rate mode : Variable
Bit rate : 128 kb/s
Maximum bit rate : 138 kb/s
Channel(s) : 2 channels
Channel layout : L R
Sampling rate : 48.0 kHz
Frame rate : 46.875 FPS (1024 SPF)
Compression mode : Lossy
Stream size : 83.1 MiB (24%)
Encoded date : UTC 2021-05-23 11:30:54
Tagged date : UTC 2021-05-23 11:54:43




Скачать Вирус страха через торрент https://i4-imageban-ru.translate.goog/out/2021/05/22/554d45e2d021158a9665efc10234e778.png Скачать, смотреть онлайн Вирус страха бесплантно в хорошем качестве Описание: Пандемия неизвестного вируса парализует жизнь страны. Крупные города закрыты на карантин, передвижение между населенными пунктами ... 10 10 2
Торрент: Зарегистрирован [2021-05-24 07:02] · скачан: 15 раз
Статус: √ проверено
Размер: 345 MB
Как cкачать? Как скачать Вирус страха через торрент | UTorrent

% Раздел Тема Автор DL S | L
Фильмы 2019-2020 [DVDrip, WEB-DLRip, HDrip] (DUB, MVO) [ 1.42 GB ] Вирус страха / Перед пожаром / Before the Fire | IVI | BDRip Twi7ter Скачать
3 | 0
Фильмы 2019-2020 [DVDrip, WEB-DLRip, HDrip] (DUB, MVO) [ 1.86 GB ] Вирус страха / Перед пожаром / Before the Fire | IVI | BDRip AVC Леонид Ильич Скачать
1 | 0
Фильмы [HD 720p, 1080p] (Хороший звук DUB, MVO) [ 8.57 GB ] Вирус страха / Перед пожаром / Before the Fire | IVI | 1080p bober100 Скачать
1 | 0
Фильмы 2019-2020 [DVDrip, WEB-DLRip, HDrip] (DUB, MVO) [ 1.37 GB ] Вирус страха / Before the Fire / The Great Silence | | BDRip killermax2013 Скачать
1 | 0

28-11-2019 20:33  


Отключить вcю реклaмy на сайте, в т.ч. и в плеере онлайн просмотра!

07-11-2022 13:54 Вирус страха Скачать торрент  

Раздайте, заранее спасибо!



    Дорогой пользователь! Огромная просьба, поблагодарите релизера, оцените раздачу и оставьте свои комментарий, если Вы скачали Вирус страха через торрент бесплатно!!
    Комментировать посты могут только пользователи прошедшие не сложную регистрацию
    Показать сообщения:    


    Вирус страха через торрент
    Скачать бесплатно Вирус страха
    Вирус страха скачать торрент
    Вирус страха смотреть онлайн
    Cкачать фильм Вирус страха бесплатно
    Вирус страха скачать торрент в хорошем качестве
    Вирус страха смотреть онлайн бесплатно в хорошем качестве
    Вы не можете начинать темы
    Вы не можете отвечать на сообщения
    Вы не можете редактировать свои сообщения
    Вы не можете удалять свои сообщения
    Вы не можете голосовать в опросах
    Вы не можете прикреплять файлы к сообщениям
    Вы можете скачивать файлы
    Вирус страха / Перед пожаром / Before the Fire [2020 г., Триллер, фантастика, боевик, HDRip, КПК] Дубляж [IVI] смотреть онлайн, скачать торрент picoco.icu