1 сезон

3 сезон

iTunes

1

iTunes

DUB Netflix

iTunes

13

1 сезон

RePack

30

Deluxe

pack

Легкие деньги

ВАЖНО

ИГРА 18+

pack

RePack

MK11

RePack

jed

RePack

fifa19

RePack

RDR2

RePack

NEED FOR SPEED™ PAYBACK

4 сезон

9 сезон

Бесстыжие 9 сезон

Все сериалы

все сериалы на PB.wtf

RePack

FAR CRY 5

Anonymous, доброй ночи, мы не успеваем до 1 числа собрать деньги на оплату серверов, помогите нам пожалуйста в это трудное время. В качестве благодарности мы отключим Вам всю рекламу на сайте (укажите свой ник в строку Ваше имя)!

×
  
Magnet ссылка

Мир! Дружба! Жвачка! / Сезон: 2 / Серии: 1-8 из 8 + Фильм о фильме (Илья Аксёнов) [2021, Комедия, драма, WEBRip 720p, (Версия 18+)] piratbit.org

Мир! Дружба! Жвачка! через торрент piratbit.org

Раздают: 3 [ 59 KB/s ] Качают: 1 [ 0 KB/s ]
Размер: 9.36 GB | Добавлен: 19 д. назад | Торрент скачан:75 раз
Скачать  

25-05-2021 02:29 Мир! Дружба! Жвачка! Скачать торрент  

Мир! Дружба! Жвачка! 2
Год выпуска: 2020
Страна: Россия
Выпущено: Good Story Media по заказу телеканала ТНТ
Жанр: Комедия, драма
Продолжительность: ~ 00:46:00
Перевод: Не требуется
Субтитры: отсутствуют
Версия 18+.

Режиссер: Илья Аксёнов



В ролях: Юра Борисов, Ксения Каталымова, Степан Девонин, Егор Губарев, Фёдор Рощин, Егор Абрамов, Валентина Ляпина, Артур Бесчастный, Александр Половцев, Лариса Удовиченко, Полина Гухман, Дарья Гущина, Елизавета Лотова, Михаил Орлов (II), Евгений Харитонов (II), Ксения Трейстер, Сергей Стёпин, Анатолий Журавлёв, Дмитрий Куличков, Георгий Ратишвили, Лев Малишава, Сергей Шайдаков, Арслан Мурзабеков

Описание: Семья Рябининых никак не может оправиться от событий лета 93-го. Надежда тянет на себе всю семью, работая в инвестиционном фонде «Виталинвест». Её муж – безработный писатель Фёдор – затеял в квартире вечный ремонт и стал больше общаться с мамой, пытаясь разобраться в себе. Санька тем временем готовится встречать Женьку, вернувшуюся из Германии, потому что её родители не смогли ужиться вместе и расходятся. Вовка пытается заработать хоть какие-то гроши, пока из его квартиры за долги выносят мебель и технику, а отцу платят зарплату акциями. Илюша всё больше теряет связь с реальностью, увлекшись фэнтезийным миром вселенной «Властелина колец». Никуда не делось противостояние кавказцев и афганцев, которых теперь возглавляют сын Зураба Бесо и Витя – и никто не знает, что Алик выжил.

Качество: WEBRip 720p
Формат: MKV

Видео: MPEG-4 AVC, ~ 3000 Кбит/с, 1280x536, 25 fps
Аудио: 48.0 kHz, AC3 Dolby Digital, 2/0 (L,R) ch, ~ 192 kbps
скриншот  скриншот  скриншот  скриншот  скриншот  

Общее
Уникальный идентификатор : 179398113557439888861258018961963707611 (0x86F6D1E41804BEFC604F219D527D6CDB)
Полное имя : D:Mir.Druzhba.Zhvachka.S02.2021.WEB-DL.720p1.Mir.Druzhba.Zhvachka.S02.2021.WEB-DL.720p.mkv
Формат : Matroska
Версия формата : Version 4
Размер файла : 1,04 Гбайт
Продолжительность : 47 м. 7 с.
Режим общего битрейта : Переменный
Общий поток : 3 169 Кбит/сек
Название фильма : 01.Mir.Druzhba.Zhvachka.S02.2021.WEB-DL.720p
Дата кодирования : UTC 2021-05-24 18:03:21
Программа кодирования : mkvmerge v57.0.0 ('Till The End') 64-bit
Библиотека кодирования : libebml v1.4.2 + libmatroska v1.6.4
Attachments : poster.jpeg

Видео
Идентификатор : 1
Формат : AVC
Формат/Информация : Advanced Video Codec
Профиль формата : High@L3.1
Настройки формата : CABAC / 1 Ref Frames
Параметр CABAC формата : Да
Параметр RefFrames формата : 1 кадр
Параметр GOP формата : M=1, N=50
Идентификатор кодека : V_MPEG4/ISO/AVC
Продолжительность : 47 м. 7 с.
Вид битрейта : Переменный
Битрейт : 3 000 Кбит/сек
Ширина : 1 280 пикселей
Высота : 528 пикселей
Соотношение сторон : 2,40:1
Режим частоты кадров : Постоянный
Частота кадров : 25,000 кадров/сек
Цветовое пространство : YUV
Субдискретизация насыщенности : 4:2:0
Битовая глубина : 8 бит
Тип развёртки : Прогрессивная
Бит/(Пиксели*Кадры) : 0.178
Размер потока : 1 003 Мбайт (94%)
Default : Да
Forced : Нет

Аудио
Идентификатор : 2
Формат : AC-3
Формат/Информация : Audio Coding 3
Коммерческое название : Dolby Digital
Идентификатор кодека : A_AC3
Продолжительность : 47 м. 7 с.
Вид битрейта : Постоянный
Битрейт : 192 Кбит/сек
Каналы : 2 канала
Channel layout : L R
Частота : 48,0 КГц
Частота кадров : 31,250 кадров/сек (1536 SPF)
Метод сжатия : С потерями
Размер потока : 64,7 Мбайт (6%)
Service kind : Complete Main
Default : Да
Forced : Нет

Когда раздача ведётся путём добавления новых серий, при каждом добавлении создётся новый торрент. Чтобы начать докачку новой серии, пользователям необходимо сделать следующее:
(1) остановить скачивание,
(2) удалить старый торрент у себя из клиента (старые серии удалять не надо),
(3) скачать новый торрент и запустить его у себя в клиенте вместо старого, при этом указать клиенту путь в старую папку, куда и должно происходить скачивание новых серий.
Ваш клиент при этом должен произвести хеширование (проверку) старой папки (если не производит сам - помогите ему сделать это), и будет докачивать только те серии, которых у вас ещё нет. Старые серии при этом не удаляются, а продолжают раздаваться!
Eсли вы уже удалили старые серии, то предотвратить повторную закачку старых серий можно, отжав галочку в соответсвующих местах при запуске нового торрента. По возможности, желательно не удалять старые серии как можно дольше, чтобы релизёр не столько продолжал раздавать старые серии, а смог сконцентрироваться на новых.
piratbit.org



Скачать Мир! Дружба! Жвачка! через торрент https://a.radikal.ru/a35/2105/9e/bc7b734dfa9f.jpg Скачать фильм Мир! Дружба! Жвачка! через торрент бесплантно в хорошем качестве Описание: Семья Рябининых никак не может оправиться от событий лета 93-го. Надежда тянет на себе всю семью, работая в инвестиционном фонде ... 8.9 10 17
Торрент: Зарегистрирован [2021-06-04 02:22] · скачан: 75 раз
Статус: √ проверено
Размер: 9.36 GB
Как cкачать? Как скачать Мир! Дружба! Жвачка! через торрент | UTorrent

% Раздел Тема Автор DL S | L
TNT serials [ 13.77 GB ] Мир! Дружба! Жвачка! / Сезон: 2 / Серии: 1-8 из 8 + Фильм о фильме [2021 WEBRip 1080p ] bober100 Скачать
13 | 2
Наши сериалы [ 5.3 GB ] Мир! Дружба! Жвачка! / Сезон: 2 / Серии: 1-8 из 8 + Фильм о фильме [2021 WEBRip-AVC ] bober100 Скачать
5 | 1
TNT serials [ 5.27 GB ] Мир! Дружба! Жвачка! / Сезон: 2 / Серии: 1-8 из 8 + Фильм о фильме [2021 WEBRip ] bober100 Скачать
64 | 912

28-11-2019 20:33  

Отключить всю рекламу на сайте


    Дорогой пользователь! Огромная просьба, поблагодарите релизера, оцените раздачу и оставьте свои комментарий, если Вы скачали Мир! Дружба! Жвачка! через торрент бесплатно! Внесите свою лепту в развитие PiratBit!
    Комментировать посты могут только пользователи прошедшие не сложную регистрацию
    Показать сообщения:    

    Мир! Дружба! Жвачка! через торрент
    Скачать бесплатно Мир! Дружба! Жвачка!
    Мир! Дружба! Жвачка! скачать торрент
    Мир! Дружба! Жвачка! смотреть онлайн
    Cкачать фильм Мир! Дружба! Жвачка! бесплатно
    Мир! Дружба! Жвачка! скачать торрент в хорошем качестве
    Мир! Дружба! Жвачка! смотреть онлайн бесплатно в хорошем качестве


    Вы не можете начинать темы
    Вы не можете отвечать на сообщения
    Вы не можете редактировать свои сообщения
    Вы не можете удалять свои сообщения
    Вы не можете голосовать в опросах
    Вы не можете прикреплять файлы к сообщениям
    Вы можете скачивать файлы