1 сезон

3 сезон

iTunes

1

iTunes

MVO

iTunes

13

1 сезон

RePack

30

Deluxe

pack

Лицензия

ВАЖНО

ИГРА 18+

pack

RePack

MK11

RePack

jed

RePack

fifa19

RePack

RDR2

RePack

NEED FOR SPEED™ PAYBACK

4 сезон

9 сезон

Бесстыжие 9 сезон

Все сериалы

все сериалы на PB.wtf

RePack

FAR CRY 5

Anonymous, добрый вечер, мы катастрофически не успеваем собрать деньги на оплату серверов, помогите нам пожалуйста 5,10,15р., для нас важна любая помощь . В качестве благодарности мы отключим Вам всю рекламу на сайте (укажите свой ник в строку Ваше имя)!

×
  
Magnet ссылка

День Святого Валентина / Valentine (Джеми Блэнкс) [2001 г., ужасы, триллер, детектив, BDRip] DUB piratbit.org

День Святого Валентина через торрент piratbit.org

Размер: 1.45 GB | Добавлен: 2 мес. назад | Торрент скачан:0 раз
Скачать  

25-05-2021 17:36 День Святого Валентина Скачать торрент  

День Святого Валентина / Valentine
Год выпуска: 2001
Страна: США
Жанр: Ужасы, триллер, детектив
Продолжительность: 01:36:05
Перевод: Дубляж
Субтитры: Отсутствуют

Режиссер: Джеми Блэнкс

rating

В ролях: Дэнис Ричардс, Марли Шелтон, Кэтрин Хейгл, Джессика Кэпшоу, Дэвид Бореаназ, Дэниэл Косгров, Джессика Коффил, Хеди Барресс, Фульвио Чечере, Джонни Витуорт

Описание: Помнишь паренька, над которым все издевались в День Святого Валентина? Он тебя не забыл. Месть сладка, как конфетка ко Дню всех влюбленных. Во всяком случае, так думает убийца в маске Купидона. Давным-давно, в школьной юности, компания красивых подружек находила забавным поиздеваться над прыщавым неудачником. Прошли годы, он вырос. И ничего не забыл.
Качество: BDRip
Формат: AVI
Видео: XviD, 1763 Кбит/с, 720x304, 23.976 кадр/с
Аудио: Русский, AC3, 6 ch, 384 Кбит/сек
Видео
Идентификатор : 0
Формат : MPEG-4 Visual
Профиль формата : Advanced Simple@L5
Настройки формата : BVOP2
Параметр BVOP формата : 2
Параметр QPel формата : Нет
Параметр GMC формата : Без точки перехода
Параметр матрицы формата : Default (MPEG)
Идентификатор кодека : XVID
Идентификатор кодека/Подсказка : XviD
Продолжительность : 1 ч. 36 м.
Битрейт : 1763 Кбит/сек
Ширина : 720 пикселей
Высота : 304 пикселя
Соотношение сторон : 2,35:1
Частота кадров : 23,976 (24000/1001) кадра/сек
Цветовое пространство : YUV
Субдискретизация насыщенности : 4:2:0
Битовая глубина : 8 бит
Тип развёртки : Прогрессивная
Метод сжатия : С потерями
Бит/(Пиксели*Кадры) : 0.336
Размер потока : 1,18 Гбайт (82%)
Библиотека кодирования : XviD 73

Аудио
Идентификатор : 1
Формат : AC-3
Формат/Информация : Audio Coding 3
Коммерческое название : Dolby Digital
Идентификатор кодека : 2000
Продолжительность : 1 ч. 36 м.
Вид битрейта : Постоянный
Битрейт : 384 Кбит/сек
Каналы : 6 каналов
ChannelLayout : L R C LFE Ls Rs
Частота : 48,0 КГц
Частота кадров : 31,250 кадров/сек (1536 SPF)
Метод сжатия : С потерями
Размер потока : 264 Мбайт (18%)
Выравнивание : Разделение по промежуткам
Продолжительность промежутка : 42 мс. (1,00 видеокадр)
Время предзагрузки промежутка : 500 мс.
ServiceKind/String : Complete Main

скриншот   скриншот   скриншот   скриншот  
piratbit.org



Скачать День Святого Валентина через торрент https://pic1.kartinco.top/new/img/2021-05/25/1dn6hpw728tf8afx1nzdx9s8z.jpg Скачать фильм День Святого Валентина через торрент бесплантно в хорошем качестве Описание: Помнишь паренька, над которым все издевались в День Святого Валентина? Он тебя не забыл. Месть сладка, как конфетка ко Дню всех ... 10 10 2
Торрент: Зарегистрирован [2021-05-25 17:36] · скачан: 0 раз
Статус: √ проверено
Размер: 1.45 GB
Как cкачать? Как скачать День Святого Валентина через торрент | UTorrent

% Раздел Тема Автор DL S | L
Фильмы [HD 720p, 1080p] (Хороший звук DUB, MVO) [ 4.76 GB ] День Святого Валентина / Valentine [2001 BDRip-HEVC 1080p] DUB RealOldGamer Скачать
3 | 0
Фильмы [HD 720p, 1080p] (Хороший звук DUB, MVO) [ 13.65 GB ] День Святого Валентина / Valentine's Day [2010 BDRip 1080p by msltel] DUB msltel Скачать
1 | 0
Фильмы [HD 720p, 1080p] (Хороший звук DUB, MVO) [ 5.04 GB ] День Святого Валентина / Valentine's Day [2010 BDRip 720p by msltel] DUB msltel Скачать
1 | 0

28-11-2019 20:33  

Отключить всю рекламу на сайте


    Дорогой пользователь! Огромная просьба, поблагодарите релизера, оцените раздачу и оставьте свои комментарий, если Вы скачали День Святого Валентина через торрент бесплатно! Внесите свою лепту в развитие PiratBit!
    Комментировать посты могут только пользователи прошедшие не сложную регистрацию
    Показать сообщения:    

    День Святого Валентина через торрент
    Скачать бесплатно День Святого Валентина
    День Святого Валентина скачать торрент
    День Святого Валентина смотреть онлайн
    Cкачать фильм День Святого Валентина бесплатно
    День Святого Валентина скачать торрент в хорошем качестве
    День Святого Валентина смотреть онлайн бесплатно в хорошем качестве


    Вы не можете начинать темы
    Вы не можете отвечать на сообщения
    Вы не можете редактировать свои сообщения
    Вы не можете удалять свои сообщения
    Вы не можете голосовать в опросах
    Вы не можете прикреплять файлы к сообщениям
    Вы можете скачивать файлы