1 сезон

3 сезон

iTunes

1

iTunes

DUB Netflix

iTunes

13

1 сезон

RePack

30

Deluxe

pack

Легкие деньги

ВАЖНО

ИГРА 18+

pack

RePack

MK11

RePack

jed

RePack

fifa19

RePack

RDR2

RePack

NEED FOR SPEED™ PAYBACK

4 сезон

9 сезон

Бесстыжие 9 сезон

Все сериалы

все сериалы на PB.wtf

RePack

FAR CRY 5

Anonymous, доброе утро, мы не успеваем до 1 числа собрать деньги на оплату серверов, помогите нам пожалуйста в это трудное время. В качестве благодарности мы отключим Вам всю рекламу на сайте (укажите свой ник в строку Ваше имя)!

×
  
Magnet ссылка

Упс... Приплыли! / Ooops! The Adventure Continues (Тоби Генкель, Шон МакКормак) [2020, Мультфильм, комедия, приключения, семейный, BDRip 720p] DUB (rus, ukr) [iTunes] piratbit.org

Упс... Приплыли! через торрент piratbit.org

Раздают: 8 [ 34 KB/s ] Качают: 1 [ 0 KB/s ]
Размер: 3.74 GB | Добавлен: 21 д. назад | Торрент скачан:138 раз
Скачать  

28-05-2021 01:08 Упс... Приплыли! Скачать торрент  

Упс... Приплыли! | Ooops! The Adventure Continues
Год выпуска: 2020
Страна: Ирландия, Люксембург
Выпущено: Ulysses Filmproduktion, Fabrique d'Images
Жанр: Мультфильм, комедия, приключения, семейный
Продолжительность: 01:26:09
Перевод:
#1: Дублированный | RU | iTunes
#2: Дублированный | UKR
Субтитры: Английские

Режиссер: Тоби Генкель, Шон МакКормак

rating

В ролях: Макс Кэролан, Ава Коннолли, Дермот Магеннис, Тара Флинн, Мэри Мюррэй, Брендан Макдональд, Карли Кейн, Алан Стэнфорд, Эйлин Митен, Пол Тайлак

Описание: После 147 дней в открытом море дела на ковчеге не очень: запасы еды заканчиваются, хищники начинают жадно посматривать на травоядных, а земля так и не показалась. Но все меняет случай. Нечаянно оказавшись за бортом, Финни и Леа обнаруживают райский остров, на котором всем нашлось бы место. Осталось только спросить, что по этому поводу думают обитатели этого острова…

Качество: BDRip 720p
Формат: MKV

Видео: MPEG-4 AVC, 5000 Kb/s, 1280x690, 24.000 fps
Аудио #1 Russian: 48 kHz, AC3 Dolby Digital, 3/2 (L, C, R, l, r) + LFE ch, ~384 Kbps | DUB | iTunes
Аудио #2 Ukrainian: 48 kHz, AC3 Dolby Digital, 2/0 (L, R) ch, ~192 Kbps | DUB
Аудио #3 English: 48 kHz, AC3 Dolby Digital, 3/2 (L, C, R, l, r) + LFE ch, ~640 Kbps | Original
скриншот  скриншот  скриншот  скриншот  

Complete name : Ups.Priplyili.2020.BDRip.720p.ELEKTRI4KA.UNIONGANG.mkv
Format : Matroska
Format version : Version 4
File size : 3.74 GiB
Duration : 1 h 26 min
Overall bit rate : 6 218 kb/s
Movie name : Ups.Priplyili.2020.BDRip.720p.ELEKTRI4KA.UNIONGANG.
Encoded date : UTC 2021-05-27 13:40:23
Writing application : mkvmerge v8.3.0 ('Over the Horizon') 64bit
Writing library : libebml v1.3.1 + libmatroska v1.4.2

Video
ID : 1
Format : AVC
Format/Info : Advanced Video Codec
Format profile : High@L4.1
Format settings : CABAC / 9 Ref Frames
Format settings, CABAC : Yes
Format settings, Reference frames : 9 frames
Codec ID : V_MPEG4/ISO/AVC
Duration : 1 h 26 min
Bit rate : 5 000 kb/s
Width : 1 280 pixels
Height : 690 pixels
Display aspect ratio : 1.85:1
Frame rate mode : Constant
Frame rate : 24.000 FPS
Color space : YUV
Chroma subsampling : 4:2:0
Bit depth : 8 bits
Scan type : Progressive
Bits/(Pixel*Frame) : 0.236
Stream size : 3.01 GiB (80%)
Writing library : x264 core 157 r2958 57baac4
Encoding settings : cabac=1 / ref=9 / deblock=1:-3:-3 / analyse=0x3:0x133 / me=umh / subme=10 / psy=1 / psy_rd=1.00:0.00 / mixed_ref=1 / me_range=32 / chroma_me=1 / trellis=2 / 8x8dct=1 / cqm=0 / deadzone=21, 11 / fast_pskip=0 / chroma_qp_offset=-2 / threads=49 / lookahead_threads=5 / sliced_threads=0 / nr=0 / decimate=0 / interlaced=0 / bluray_compat=0 / constrained_intra=0 / bframes=8 / b_pyramid=2 / b_adapt=2 / b_bias=0 / direct=3 / weightb=0 / open_gop=0 / weightp=2 / keyint=240 / keyint_min=24 / scenecut=40 / intra_refresh=0 / rc=2pass / mbtree=0 / bitrate=5000 / ratetol=1.0 / qcomp=0.60 / qpmin=0 / qpmax=69 / qpstep=4 / cplxblur=20.0 / qblur=0.5 / ip_ratio=1.40 / pb_ratio=1.30 / aq=1:1.00
Default : Yes
Forced : No

Audio #1
ID : 2
Format : AC-3
Format/Info : Audio Coding 3
Commercial name : Dolby Digital
Codec ID : A_AC3
Duration : 1 h 26 min
Bit rate mode : Constant
Bit rate : 384 kb/s
Channel(s) : 6 channels
Channel layout : L R C LFE Ls Rs
Sampling rate : 48.0 kHz
Frame rate : 31.250 FPS (1536 SPF)
Compression mode : Lossy
Stream size : 237 MiB (6%)
Title : DUB (iTunes)
Language : Russian
Service kind : Complete Main
Default : Yes
Forced : Yes

Audio #2
ID : 3
Format : AC-3
Format/Info : Audio Coding 3
Commercial name : Dolby Digital
Codec ID : A_AC3
Duration : 1 h 26 min
Bit rate mode : Constant
Bit rate : 192 kb/s
Channel(s) : 2 channels
Channel layout : L R
Sampling rate : 48.0 kHz
Frame rate : 31.250 FPS (1536 SPF)
Compression mode : Lossy
Stream size : 118 MiB (3%)
Title : DUB
Language : Ukrainian
Service kind : Complete Main
Default : No
Forced : No

Audio #3
ID : 4
Format : AC-3
Format/Info : Audio Coding 3
Commercial name : Dolby Digital
Codec ID : A_AC3
Duration : 1 h 26 min
Bit rate mode : Constant
Bit rate : 640 kb/s
Channel(s) : 6 channels
Channel layout : L R C LFE Ls Rs
Sampling rate : 48.0 kHz
Frame rate : 31.250 FPS (1536 SPF)
Compression mode : Lossy
Stream size : 394 MiB (10%)
Title : Original
Language : English
Service kind : Complete Main
Default : No
Forced : No

Text
ID : 5
Format : UTF-8
Codec ID : S_TEXT/UTF8
Codec ID/Info : UTF-8 Plain Text
Duration : 1 h 25 min
Bit rate : 53 b/s
Count of elements : 1219
Stream size : 33.3 KiB (0%)
Language : English
Default : No
Forced : No

Menu
00:00:00.000 : en:Chapter 01
00:05:54.583 : en:Chapter 02
00:14:29.958 : en:Chapter 03
00:21:10.958 : en:Chapter 04
00:24:30.542 : en:Chapter 05
00:35:11.750 : en:Chapter 06
00:46:02.375 : en:Chapter 07
00:54:38.375 : en:Chapter 08
01:03:17.667 : en:Chapter 09
01:10:53.500 : en:Chapter 10
01:17:36.000 : en:Chapter 11
01:20:53.375 : en:Chapter 12

piratbit.org



Скачать Упс... Приплыли! через торрент https://d.radikal.ru/d15/2105/43/8630fc1a1061.png Скачать фильм Упс... Приплыли! через торрент бесплантно в хорошем качестве Описание: После 147 дней в открытом море дела на ковчеге не очень: запасы еды заканчиваются, хищники начинают жадно посматривать на ... 9.8 10 5
Торрент: Зарегистрирован [2021-05-28 01:08] · скачан: 138 раз
Статус: √ проверено
Размер: 3.74 GB
Как cкачать? Как скачать Упс... Приплыли! через торрент | UTorrent

% Раздел Тема Автор DL S | L
Иностранные мультфильмы [ 2.05 GB ] Упс... Приплыли! / Ooops! The Adventure Continues [2020 Мультфильм полнометражный HDRip-AVC] от MediaBit Lithuania Скачать
6 | 0
Иностранные мультфильмы [ 1.46 GB ] Упс... Приплыли! / Ooops! The Adventure Continues [2020 Мультфильм BDRip] DUB bober100 Скачать
6 | 0
Зарубежные Мультфильмы (BDRip 1080p, 720p, Blu-ray, BD-Remux) [ 14.91 GB ] Упс... Приплыли! / Ooops! The Adventure Continues [2020 Мультфильм BD Remux 1080p] DUB bober100 Скачать
2 | 0
Зарубежные Мультфильмы (BDRip 1080p, 720p, Blu-ray, BD-Remux) [ 6.26 GB ] Упс... Приплыли! / Ooops! The Adventure Continues [2020 Мультфильм BDRip 1080p] DUB bober100 Скачать
8 | 0

28-11-2019 20:33  

Отключить всю рекламу на сайте

    Дорогой пользователь! Огромная просьба, поблагодарите релизера, оцените раздачу и оставьте свои комментарий, если Вы скачали Упс... Приплыли! через торрент бесплатно! Внесите свою лепту в развитие PiratBit!
    Комментировать посты могут только пользователи прошедшие не сложную регистрацию
    Показать сообщения:    

    Упс... Приплыли! через торрент
    Скачать бесплатно Упс... Приплыли!
    Упс... Приплыли! скачать торрент
    Упс... Приплыли! смотреть онлайн
    Cкачать фильм Упс... Приплыли! бесплатно
    Упс... Приплыли! скачать торрент в хорошем качестве
    Упс... Приплыли! смотреть онлайн бесплатно в хорошем качестве


    Вы не можете начинать темы
    Вы не можете отвечать на сообщения
    Вы не можете редактировать свои сообщения
    Вы не можете удалять свои сообщения
    Вы не можете голосовать в опросах
    Вы не можете прикреплять файлы к сообщениям
    Вы можете скачивать файлы