1 сезон

3 сезон

iTunes

1

iTunes

DUB Netflix

iTunes

13

1 сезон

RePack

30

Deluxe

pack

Легкие деньги

ВАЖНО

ИГРА 18+

pack

RePack

MK11

RePack

jed

RePack

fifa19

RePack

RDR2

RePack

NEED FOR SPEED™ PAYBACK

4 сезон

9 сезон

Бесстыжие 9 сезон

Все сериалы

все сериалы на PB.wtf

RePack

FAR CRY 5

Anonymous, доброй ночи, мы не успеваем до 1 числа собрать деньги на оплату серверов, помогите нам пожалуйста в это трудное время. В качестве благодарности мы отключим Вам всю рекламу на сайте (укажите свой ник в строку Ваше имя)!

×
  
Magnet ссылка

Звук металла / Sound of Metal (Дариус Мардер) [2019, Драма, музыка, HDRip-AVC] MVO [iTunes] от MediaBit piratbit.org

Звук металла через торрент piratbit.org

Раздают: 9 [ 0 KB/s ]
Размер: 2.05 GB | Добавлен: 16 д. назад | Торрент скачан:49 раз
Скачать  

01-06-2021 19:00 Звук металла Скачать торрент  


Звук металла / Sound of Metal
Информация о фильме:
Название: Звук металла
Оригинальное название: Sound of Metal
Год выхода: 2019
Жанр: Драма, музыка
Режиссер: Дариус Мардер

В ролях: Риз Ахмед, Оливия Кук, Пол Раджи, Матьё Амальрик, Лорен Ридлофф, Джэми Хазарьян, Крис Перфетти, Уильям Ксифарас, Хиллари Бак, Майкл Тоу

Описание: Blackgammon – так называется панк-металическая группа, сколоченная барабанщиком Рубеном и его боевой подругой Лу. Для рокера Рубен – бывший наркоман, завязавший с пагубной зависимостью – слишком повёрнут на здоровом образе жизни, впрочем, от болезней, как от сумы и тюрьмы, лучше не зарекаться. Во время выступления он вдруг слышит, что ударные издают не фирменный саунд, а глухой гул. Это первый симптом неотвратимой потери слуха. И Рубен отправляется в уединённую обитель людей с глухотой, чтобы самому научиться быть глухим.



Страна: США, Бельгия
Студия: Caviar
Продолжительность: 02:00:36
Перевод: Профессиональный (многоголосый, закадровый) - iTunes



Информация о файле:
Кодек: AVC
Формат: MKV
Качество: HDRip-AVC
Видео: MPEG-4 AVC, 1024x428, 23.976 fps, 1599 kbps
Аудио RU: AC3, 6 ch, 48 kHz, 384 kbps
Аудио EN: AC3, 6 ch, 48 kHz, 448 kbps
Субтитры: Русские (Forced, full), английские
Навигация по главам: Да

x264 info: frame I:1048 Avg QP:15.76 size: 75063
x264 info: frame P:34458 Avg QP:18.99 size: 20115
x264 info: frame B:137999 Avg QP:22.23 size: 4888
General
Unique ID : 211831498817420884025893449758287326451 (0x9F5D433E953C2A13DDE6FC3570A3ECF3)
Complete name : D:uTorrentРипы_от_wolf1245_MediaBitSound.of.Metal.2019.MVO.iTunes.HDRip-AVC.[wolf1245.MediaBit].mkv
Format : Matroska
Format version : Version 4
File size : 2.05 GiB
Duration : 2 h 0 min
Overall bit rate : 2 432 kb/s
Movie name : Sound.of.Metal.2019.MVO.iTunes.HDRip-AVC.[wolf1245.MediaBit]
Encoded date : UTC 2021-06-01 18:47:36
Writing application : mkvmerge v57.0.0 ('Till The End') 64-bit
Writing library : libebml v1.4.2 + libmatroska v1.6.4
Video
ID : 1
Format : AVC
Format/Info : Advanced Video Codec
Format profile : High@L4.1
Format settings : CABAC / 14 Ref Frames
Format settings, CABAC : Yes
Format settings, Reference frames : 14 frames
Codec ID : V_MPEG4/ISO/AVC
Duration : 2 h 0 min
Bit rate : 1 599 kb/s
Width : 1 024 pixels
Height : 428 pixels
Display aspect ratio : 2.40:1
Frame rate mode : Constant
Frame rate : 23.976 (24000/1001) FPS
Color space : YUV
Chroma subsampling : 4:2:0
Bit depth : 8 bits
Scan type : Progressive
Bits/(Pixel*Frame) : 0.152
Stream size : 1.35 GiB (66%)
Title : .[wolf1245.MediaBit]
Writing library : x264 core 157 r2958 57baac4
Encoding settings : cabac=1 / ref=14 / deblock=1:-3:-3 / analyse=0x3:0x133 / me=umh / subme=11 / psy=1 / psy_rd=1.00:0.05 / mixed_ref=1 / me_range=48 / chroma_me=1 / trellis=2 / 8x8dct=1 / cqm=0 / deadzone=21,11 / fast_pskip=1 / chroma_qp_offset=-3 / threads=10 / lookahead_threads=2 / sliced_threads=0 / nr=0 / decimate=1 / interlaced=0 / bluray_compat=0 / constrained_intra=0 / bframes=12 / b_pyramid=2 / b_adapt=2 / b_bias=0 / direct=3 / weightb=1 / open_gop=0 / weightp=2 / keyint=240 / keyint_min=24 / scenecut=40 / intra_refresh=0 / rc_lookahead=60 / rc=2pass / mbtree=1 / bitrate=1599 / ratetol=1.0 / qcomp=0.60 / qpmin=0 / qpmax=69 / qpstep=4 / cplxblur=20.0 / qblur=0.5 / vbv_maxrate=50000 / vbv_bufsize=62500 / nal_hrd=none / filler=0 / ip_ratio=1.40 / aq=1:0.80
Language : English
Default : Yes
Forced : No
Color range : Limited
Color primaries : BT.709
Transfer characteristics : BT.709
Matrix coefficients : BT.709
Audio #1
ID : 2
Format : AC-3
Format/Info : Audio Coding 3
Commercial name : Dolby Digital
Codec ID : A_AC3
Duration : 2 h 0 min
Bit rate mode : Constant
Bit rate : 384 kb/s
Channel(s) : 6 channels
Channel layout : L R C LFE Ls Rs
Sampling rate : 48.0 kHz
Frame rate : 31.250 FPS (1536 SPF)
Bit depth : 16 bits
Compression mode : Lossy
Stream size : 331 MiB (16%)
Title : MVO | [iTunes]
Language : Russian
Service kind : Complete Main
Default : Yes
Forced : No
Audio #2
ID : 3
Format : AC-3
Format/Info : Audio Coding 3
Commercial name : Dolby Digital
Codec ID : A_AC3
Duration : 2 h 0 min
Bit rate mode : Constant
Bit rate : 448 kb/s
Channel(s) : 6 channels
Channel layout : L R C LFE Ls Rs
Sampling rate : 48.0 kHz
Frame rate : 31.250 FPS (1536 SPF)
Bit depth : 16 bits
Compression mode : Lossy
Stream size : 386 MiB (18%)
Title : Original
Language : English
Service kind : Complete Main
Default : No
Forced : No
Text #1
ID : 4
Format : UTF-8
Codec ID : S_TEXT/UTF8
Codec ID/Info : UTF-8 Plain Text
Duration : 1 h 46 min
Bit rate : 6 b/s
Count of elements : 126
Stream size : 5.17 KiB (0%)
Title : Forced
Language : Russian
Default : Yes
Forced : Yes
Text #2
ID : 5
Format : UTF-8
Codec ID : S_TEXT/UTF8
Codec ID/Info : UTF-8 Plain Text
Duration : 1 h 59 min
Bit rate : 45 b/s
Count of elements : 963
Stream size : 40.0 KiB (0%)
Title : Full
Language : Russian
Default : No
Forced : No
Text #3
ID : 6
Format : UTF-8
Codec ID : S_TEXT/UTF8
Codec ID/Info : UTF-8 Plain Text
Duration : 43 min 1 s
Bit rate : 3 b/s
Count of elements : 63
Stream size : 1.08 KiB (0%)
Title : Forced
Language : English
Default : No
Forced : No
Text #4
ID : 7
Format : UTF-8
Codec ID : S_TEXT/UTF8
Codec ID/Info : UTF-8 Plain Text
Duration : 2 h 0 min
Bit rate : 39 b/s
Count of elements : 1469
Stream size : 35.0 KiB (0%)
Title : SDH
Language : English
Default : No
Forced : No
Menu
00:00:00.000 : :Opening Performance
00:04:04.244 : :Between Gigs
00:11:04.997 : :Diagnosis
00:18:07.753 : :Trauma
00:24:05.485 : :Found a Place
00:29:04.033 : :Interview
00:35:23.955 : :Separation
00:41:59.975 : :Joining the Community
00:48:23.317 : :Learning
00:53:48.725 : :Writing
00:59:33.778 : :New Rhythm
01:05:03.816 : :Future
01:11:43.007 : :Selling
01:17:19.426 : :Surgery
01:21:36.641 : :Violation of Trust
01:30:56.909 : :Getting Adjusted
01:40:37.698 : :Reunited
01:52:34.456 : :Silence
01:56:06.709 : :End Credits
Релиз от: &
Автор релиза:
piratbit.org



Скачать Звук металла через торрент https://i114.fastpic.ru/big/2021/0601/9c/7605c2cd3ebb5dcac77fa776c1cfb29c.jpg Скачать фильм Звук металла через торрент бесплантно в хорошем качестве Описание: Blackgammon – так называется панк-металическая группа, сколоченная барабанщиком Рубеном и его боевой подругой Лу. Для рокера ... 10 10 2
Торрент: Зарегистрирован [2021-06-01 19:00] · скачан: 49 раз
Статус: √ проверено
Размер: 2.05 GB
Как cкачать? Как скачать Звук металла через торрент | UTorrent

28-11-2019 20:33  

Отключить всю рекламу на сайте

    Дорогой пользователь! Огромная просьба, поблагодарите релизера, оцените раздачу и оставьте свои комментарий, если Вы скачали Звук металла через торрент бесплатно! Внесите свою лепту в развитие PiratBit!
    Комментировать посты могут только пользователи прошедшие не сложную регистрацию
    Показать сообщения:    

    Звук металла через торрент
    Скачать бесплатно Звук металла
    Звук металла скачать торрент
    Звук металла смотреть онлайн
    Cкачать фильм Звук металла бесплатно
    Звук металла скачать торрент в хорошем качестве
    Звук металла смотреть онлайн бесплатно в хорошем качестве


    Вы не можете начинать темы
    Вы не можете отвечать на сообщения
    Вы не можете редактировать свои сообщения
    Вы не можете удалять свои сообщения
    Вы не можете голосовать в опросах
    Вы не можете прикреплять файлы к сообщениям
    Вы можете скачивать файлы