1 сезон

3 сезон

iTunes

1

iTunes

DUB Netflix

iTunes

13

1 сезон

RePack

30

Deluxe

pack

Легкие деньги

ВАЖНО

ИГРА 18+

pack

RePack

MK11

RePack

jed

RePack

fifa19

RePack

RDR2

RePack

NEED FOR SPEED™ PAYBACK

4 сезон

9 сезон

Бесстыжие 9 сезон

Все сериалы

все сериалы на PB.wtf

RePack

FAR CRY 5

Anonymous, доброй ночи, мы не успеваем до 1 числа собрать деньги на оплату серверов, помогите нам пожалуйста в это трудное время. В качестве благодарности мы отключим Вам всю рекламу на сайте (укажите свой ник в строку Ваше имя)!

×
  
Magnet ссылка

Пила: Спираль / Пила: Спіраль / Spiral: From the Book of Saw (Даррен Линн Боусман) [2021, Ужасы, детектив, триллер, WEB-DL 1080p] [Ukr DUB] + [Ukr MVO] (DniproFilm) piratbit.org

Пила: Спираль через торрент piratbit.org

Раздают: 2 [ 54 KB/s ]
Размер: 6.08 GB | Добавлен: 10 д. назад | Торрент скачан:25 раз
Скачать  

05-06-2021 06:40 Пила: Спираль Скачать торрент  

Пила: Спираль / Пила: Спіраль / Spiral: From the Book of Saw

Год выпуска: 2021
Страна: США, Канада
Жанр: Ужасы, детектив, триллер
Продолжительность: 01:33:05
Перевод #1: Украинский (дублированный) [Line]
Перевод #2: Украинский (профессиональный, многоголосный)
Субтитры: Украинские (форс.), английские

Режиссер: Даррен Линн Боусман

В ролях: Крис Рок, Сэмюэл Л. Джексон, Морган Дэвид Джонс, Али Джонсон, Дэн Петрониевич, Ричард Зэппери, Эди Инксеттер, Лейла Ли, Макс Мингелла, Кристофер Таи

Описание: Импульсивный детектив полиции Нью-Йорка Зик Бэнкс всю жизнь пытается вырваться из тени своего отца, прославленного ветерана правоохранительных органов. Однажды Бэнксу и его новому напарнику поручают расследование серии жестоких убийств, которые странным образом напоминают преступления прошлых лет. Так они оказываются в эпицентре зловещей игры, и цена проигрыша в ней — человеческая жизнь.

rating


Качество: WEB-DL 1080p *AMZN
Формат: MKV
Видео: h.264 5 701 Кбит/с, 1920x800
Аудио: 48 kHz, AC3, 2 ch, ~192.00 kbps avg - Ukr DUB
Аудио: 48 kHz, AC3, 6 ch, ~384.00 kbps avg - Ukr MVO
Аудио: 48 kHz, E-AC3, 6 ch, ~640.00 kbps avg - Eng
скриншот   скриншот   скриншот  

General
Unique ID : 201710468704206016340172941049423186156 (0x97C005EEF3EF7379A7A2CC2EA2C3C8EC)
Complete name : Spiral.From.the.Book.of.Saw.(2021).WEB-DL.1080p.2xUkr.Eng.mkv
Format : Matroska
Format version : Version 4
File size : 6.08 GiB
Duration : 1 h 33 min
Overall bit rate : 9 345 kb/s
Encoded date : UTC 2021-06-06 21:22:52
Writing application : mkvmerge v8.3.0 ('Over the Horizon') 64bit
Writing library : libebml v1.3.1 + libmatroska v1.4.2

Video
ID : 1
Format : AVC
Format/Info : Advanced Video Codec
Format profile : High@L4
Format settings : CABAC / 4 Ref Frames
Format settings, CABAC : Yes
Format settings, ReFrames : 4 frames
Codec ID : V_MPEG4/ISO/AVC
Duration : 1 h 33 min
Bit rate mode : Constant
Bit rate : 8 126 kb/s
Nominal bit rate : 10 000 kb/s
Width : 1 920 pixels
Height : 800 pixels
Display aspect ratio : 2.40:1
Frame rate mode : Constant
Frame rate : 23.976 (24000/1001) FPS
Color space : YUV
Chroma subsampling : 4:2:0
Bit depth : 8 bits
Scan type : Progressive
Bits/(Pixel*Frame) : 0.221
Stream size : 5.28 GiB (87%)
Default : Yes
Forced : No
Color range : Limited
Color primaries : BT.709
Transfer characteristics : BT.709
Matrix coefficients : BT.709

Audio #1
ID : 2
Format : AC-3
Format/Info : Audio Coding 3
Commercial name : Dolby Digital
Codec ID : A_AC3
Duration : 1 h 33 min
Bit rate mode : Constant
Bit rate : 192 kb/s
Channel(s) : 2 channels
Channel layout : L R
Sampling rate : 48.0 kHz
Frame rate : 31.250 FPS (1536 SPF)
Bit depth : 16 bits
Compression mode : Lossy
Stream size : 128 MiB (2%)
Title : DUB (Line)
Language : Ukrainian
Service kind : Complete Main
Default : Yes
Forced : No

Audio #2
ID : 3
Format : AC-3
Format/Info : Audio Coding 3
Commercial name : Dolby Digital
Codec ID : A_AC3
Duration : 1 h 33 min
Bit rate mode : Constant
Bit rate : 384 kb/s
Channel(s) : 6 channels
Channel layout : L R C LFE Ls Rs
Sampling rate : 48.0 kHz
Frame rate : 31.250 FPS (1536 SPF)
Bit depth : 16 bits
Compression mode : Lossy
Stream size : 256 MiB (4%)
Title : MVO (HDRezka)
Language : Ukrainian
Service kind : Complete Main
Default : No
Forced : No

Audio #3
ID : 4
Format : E-AC-3
Format/Info : Enhanced AC-3
Commercial name : Dolby Digital Plus
Codec ID : A_EAC3
Duration : 1 h 33 min
Bit rate mode : Constant
Bit rate : 640 kb/s
Channel(s) : 6 channels
Channel layout : L R C LFE Ls Rs
Sampling rate : 48.0 kHz
Frame rate : 31.250 FPS (1536 SPF)
Compression mode : Lossy
Stream size : 426 MiB (7%)
Title : Original
Language : English
Service kind : Complete Main
Default : No
Forced : No

Text #1
ID : 5
Format : UTF-8
Codec ID : S_TEXT/UTF8
Codec ID/Info : UTF-8 Plain Text
Duration : 41 min 33 s
Bit rate : 1 b/s
Count of elements : 6
Stream size : 368 Bytes (0%)
Title : Forced (HDRezka)
Language : Ukrainian
Default : Yes
Forced : No

Text #2
ID : 6
Format : UTF-8
Codec ID : S_TEXT/UTF8
Codec ID/Info : UTF-8 Plain Text
Duration : 1 h 25 min
Bit rate : 61 b/s
Count of elements : 1271
Stream size : 38.3 KiB (0%)
Title : Full
Language : English
Default : No
Forced : No

Text #3
ID : 7
Format : UTF-8
Codec ID : S_TEXT/UTF8
Codec ID/Info : UTF-8 Plain Text
Duration : 1 h 26 min
Bit rate : 67 b/s
Count of elements : 1440
Stream size : 42.6 KiB (0%)
Title : SDH
Language : English
Default : No
Forced : No
piratbit.org



Скачать Пила: Спираль через торрент https://i5.imageban.ru/out/2021/06/06/c7e6a53a323b4d53c58cfa9a263b4c9b.jpg Скачать фильм Пила: Спираль через торрент бесплантно в хорошем качестве Описание: Импульсивный детектив полиции Нью-Йорка Зик Бэнкс всю жизнь пытается вырваться из тени своего отца, прославленного ветерана ... 7 10 3
Торрент: Зарегистрирован [2021-06-09 07:27] · скачан: 25 раз
Статус: √ проверено
Размер: 6.08 GB
Как cкачать? Как скачать Пила: Спираль через торрент | UTorrent

% Раздел Тема Автор DL S | L
Фильмы 2021 [DVDrip, WEB-DLRip, HDrip] (DUB, MVO) [ 1.46 GB ] Пила: Спираль / Spiral: From the Book of Saw [2021 WEB-DLRip] MVO [HDRezka Studio] bober100 Скачать
12 | 0
Фильмы 2021 [DVDrip, WEB-DLRip, HDrip] (DUB, MVO) [ 1.46 GB ] Пила: Спираль / Spiral: From the Book of Saw [2021 WEB-DLRip] MVO [HDRezka Studio] Twi7ter Скачать
74 | 3
T Фильмы (WEB-DL 720p, 1080p) [ 5.99 GB ] Пила: Спираль / Spiral: From the Book of Saw [2021 WEB-DL 1080p] DVO [Pazl Voice] bober100 Скачать
24 | 0
Фильмы с украинским озвучиванием [ 1.88 GB ] Пила: Спираль / Пила: Спіраль / Spiral: From the Book of Saw [2021 WEBRip 1080p] [Ukr DUB] killermax2013 Скачать
2 | 0
T Фильмы (мультфильмы) cо спонсором показа (Новинки AVI/MKV) [ 7.53 GB ] Пила: Спираль / Spiral: From the Book of Saw [2021 WEB-DL 1080p] killermax2013 Скачать
19 | 1
T Ultra HD (UHD: 2K, 4K, 8K) — видео сверхвысокой чёткости [ 10.23 GB ] Пила: Спираль / Spiral: From the Book of Saw [2021 UHD WEB-DL 2160p] DVO [Pazl Voice] bober100 Скачать
8 | 0
Фильмы без перевода [ 5.7 GB ] Пила: Спираль / Spiral: From the Book of Saw [2021 WEBRip 1080p] 2x [Sub] killermax2013 Скачать
2 | 0


Последний раз редактировалось: killermax2013 (2021-06-09 07:27), всего редактировалось 2 раз(а)

28-11-2019 20:33  

Отключить всю рекламу на сайте


05-06-2021 11:11 Пила: Спираль Скачать торрент  

Всё в духе пилы,остался доволен...piratbit.org



09-06-2021 07:51 Пила: Спираль Скачать торрент  

Александр1300 писал(а):

Всё в духе пилы,остался доволен...

чё потерялся то? обидел кто?)piratbit.org



    Дорогой пользователь! Огромная просьба, поблагодарите релизера, оцените раздачу и оставьте свои комментарий, если Вы скачали Пила: Спираль через торрент бесплатно! Внесите свою лепту в развитие PiratBit!
    Комментировать посты могут только пользователи прошедшие не сложную регистрацию
    Показать сообщения:    

    Пила: Спираль через торрент
    Скачать бесплатно Пила: Спираль
    Пила: Спираль скачать торрент
    Пила: Спираль смотреть онлайн
    Cкачать фильм Пила: Спираль бесплатно
    Пила: Спираль скачать торрент в хорошем качестве
    Пила: Спираль смотреть онлайн бесплатно в хорошем качестве


    Вы не можете начинать темы
    Вы не можете отвечать на сообщения
    Вы не можете редактировать свои сообщения
    Вы не можете удалять свои сообщения
    Вы не можете голосовать в опросах
    Вы не можете прикреплять файлы к сообщениям
    Вы можете скачивать файлы